1 сезон

1 сезон

iTunes

1

КиноПоиск HD

Кинопоиск HD

iTunes

13

1 сезон

RePack

30

Новинка

ВАЖНО

ИГРА 18+

pack

RePack

MK11
pack

Легкие деньги

RePack

jed

RePack

fifa19

RePack

RDR2

RePack

NEED FOR SPEED™ PAYBACK

4 сезон

9 сезон

Бесстыжие 9 сезон

Все сериалы

все сериалы на PB.wtf

RePack

FAR CRY 5
  
Magnet ссылка

Тело / El Cuerpo / The Body (Ориол Паоло) [2012, триллер, BDRip 1080p] [DUB] [iTunes] pb.wtf

Тело через торрент pb.wtf

Раздают: 15 [ 130 KB/s ]
Размер: 12.38 GB | Добавлен: 4 д. назад | Торрент скачан:115 раз
Скачать  

07-04-2021 15:16 Тело Скачать торрент  

Тело / El Cuerpo / The Body«Hitchcock-style psychological thriller.» Год выпуска: 2012
Страна: Испания
Жанр: триллер
Продолжительность: 01:51:11
Озвучивание:: Дублированное | iTunes
Субтитры: Russian (2 х Full [от Perevodman - ненормативная лексика; marimerci]), English (Full), Spanish (Full)

Режиссёр: Ориол Паоло / Oriol Paulo

В ролях: Белен Руэда, Уго Силва, Аура Гарридо, Хосе Коронадо, Хуан Пабло Шук, Наусикая Боннин, Кристина Пласас, Ориол Вила, Патриция Баргальо, Хорди Планас и др.

Описание: Грузовик сбивает человека, убегающего от кого-то или от чего-то в панике. Прибывшие на место полицейские выясняют, что это - ночной сторож из близлежащего морга. Так что так напугало несчастного? И куда делся из отсека №3 недавно привезённый в морг труп?

rating

Качество: BDRip 1080p
Контейнер: MKV
Видео кодек: MPEG-4 AVC
Видео: MPEG-4 AVC, 14.9 Mбит/с, 1916x804
Аудио #1: Русский 48 kHz, AC3, 6 ch, 384 Кбит/с
Аудио #2: Spanish / 48 kHz, AC3, 6 ch, 640 Кбит/с
скриншот  скриншот  скриншот  
Полное название: Telo.2012.BDRip.1080p.ELEKTRI4KA.UNIONGANG.mkv
Формат: Matroska
Версия формата: Версия 4
Размер файла: 12,4 Гбайт
Продолжительность: 1 ч. 51 мин.
Общий битрейт: 15,9 Мбит / с
Название фильма: Telo.2012.BDRip.1080p.ELEKTRI4KA.UNIONGANG.
Дата кодирования: UTC 2021-04-06 19:31:39
Написание приложения: mkvmerge v8.3.0 ('Over the Horizon') 64bit
Библиотека написания: libebml v1.3.1 + libmatroska v1.4.2

видео
ID: 1
Формат: AVC
Формат / информация: Advanced Video Codec
Профиль формата: High@L4.1
Настройки формата: CABAC / 5 Ref Frames
Настройки формата, CABAC: Да
Настройки формата, Справочные кадры: 5 кадров
Идентификатор кодека: V_MPEG4 / ISO / AVC
Продолжительность: 1 ч. 51 мин.
Битрейт: 14,9 Мбит / с
Ширина: 1916 пикселей
Высота: 804 пикселей
Соотношение сторон экрана: 2,40: 1
Режим частоты кадров: постоянный
Частота кадров: 24000 кадров в секунду
Цветовое пространство: YUV
Подвыборка цветности: 4: 2: 0
Битовая глубина: 8 бит
Тип развертки: прогрессивный
Биты / (пиксель * кадр): 0,404
Размер потока: 11,6 Гбайт (94%)
Библиотека записи: x264 core 157 r2958 57baac4
Настройки кодирования: cabac = 1 / ref = 5 / deblock = 1: -3: -3 / analysis = 0x3: 0x113 / me = umh / subme = 11 / psy = 1 / psy_rd = 1.05: 0.05 / mixed_ref = 1 / me_range = 48 / chroma_me = 1 / trellis = 2 / 8x8dct = 1 / cqm = 0 / deadzone = 21,11 / fast_pskip = 0 / chroma_qp_offset = -3 / threads = 9 / lookahead_threads = 2 / sled_threads = 0 / nr = 0 / decimate = 0 / interlaced = 0 / bluray_compat = 0 / constrained_intra = 0 / bframes = 10 / b_pyramid = 2 / b_adapt = 2 / b_bias = 0 / direct = 3 / weightb = 1 / open_gop = 0 / weightp = 2 / keyint = 240 / keyint_min = 23 / scenecut = 40 / intra_refresh = 0 / rc_lookahead = 100 / rc = 2pass / mbtree = 0 / bitrate = 14926 / ratetol = 1.0 / qcomp = 0.70 / qpmin = 0 / qpmax = 69 / qpstep = 4 / cplxblur = 20.0 / qblur = 0.5 / vbv_maxrate = 50000 / vbv_bufsize = 62500 / nal_hrd = none / filler = 0 / ip_ratio = 1.35 / pb_ratio = 1.25 / aq = 1: 0.65
Язык: испанский
По умолчанию: Да
Принудительно: Нет
Цветовая гамма: Ограниченная
Основные цвета: BT.709
Передаточные характеристики: BT.709
Коэффициенты матрицы: BT.709

Аудио # 1
ID: 2
Формат: AC-3
Формат / информация: Audio Coding 3
Коммерческое название: Dolby Digital
Идентификатор кодека: A_AC3
Продолжительность: 1 ч. 51 мин.
Режим битовой скорости: постоянный
Битрейт: 384 кб / с
Канал (ы): 6 каналов
Расположение каналов: LRC LFE Ls Rs
Частота дискретизации: 48,0 кГц
Частота кадров: 31,250 кадров в секунду (1536 SPF)
Режим сжатия: с потерями
Размер потока: 305 Мбайт (2%)
Название: DUB (iTunes)
Язык: русский
Вид услуги: Полная основная
По умолчанию: Да
Принудительно: Да

Аудио # 2
ID: 3
Формат: AC-3
Формат / информация: Audio Coding 3
Коммерческое название: Dolby Digital
Идентификатор кодека: A_AC3
Продолжительность: 1 ч. 51 мин.
Режим битовой скорости: постоянный
Битрейт: 640 кб / с
Канал (ы): 6 каналов
Расположение каналов: LRC LFE Ls Rs
Частота дискретизации: 48,0 кГц
Частота кадров: 31,250 кадров в секунду (1536 SPF)
Режим сжатия: с потерями
Размер потока: 509 Мбайт (4%)
Название: Оригинал
Язык: испанский
Вид услуги: Полная основная
По умолчанию: Нет
Принудительно: Нет

Текст 1
ID: 4
Формат: UTF-8
Идентификатор кодека: S_TEXT / UTF8
Идентификатор кодека / информация: UTF-8 Plain Text
Продолжительность: 1 ч. 44 мин.
Битрейт: 93 бит / с
Количество элементов: 1306
Размер потока: 71,7 Кбайт (0%)
Название: Полный (Переводман)
Язык: русский
По умолчанию: Да
Принудительно: Нет

Текст №2
ID: 5
Формат: UTF-8
Идентификатор кодека: S_TEXT / UTF8
Идентификатор кодека / информация: UTF-8 Plain Text
Продолжительность: 1 ч. 44 мин.
Битрейт: 102 бит / с
Количество элементов: 1272
Размер потока: 78,5 Кбайт (0%)
Название: Полный (marimerci)
Язык: русский
По умолчанию: Нет
Принудительно: Нет

Текст # 3
ID: 6
Формат: UTF-8
Идентификатор кодека: S_TEXT / UTF8
Идентификатор кодека / информация: UTF-8 Plain Text
Продолжительность: 1 ч. 44 мин.
Битрейт: 54 бит / с
Количество элементов: 1268
Размер потока: 41,3 Кбайт (0%)
Английский язык
По умолчанию: Нет
Принудительно: Нет

Текст №4
ID: 7
Формат: UTF-8
Идентификатор кодека: S_TEXT / UTF8
Идентификатор кодека / информация: UTF-8 Plain Text
Продолжительность: 1 ч 45 мин
Битрейт: 67 бит / с
Количество элементов: 1429
Размер потока: 52,1 Кбайт (0%)
Язык: испанский
По умолчанию: Нет
Принудительно: Нет

Меню
00: 00: 00.000: es: Глава 01
00: 04: 36.817: es: Глава 02
00: 09: 16.638: es: Глава 03
00: 14: 39.586: es: Глава 04
00: 21: 55.689: es: Глава 05
00: 26: 34.342: es: Глава 06
00: 34: 23.893: es: Глава 07
00: 41: 06.963: es: Глава 08
00: 48: 30.824: es: Глава 09
00: 56: 45.652: es: Глава 10
01: 05: 11.073: es: Глава 11
01: 11: 21.903: es: Глава 12
01: 19: 30.724: es: Глава 13
01: 25: 00.886: es: Глава 14
01: 31: 49.837: es: Глава 15
01: 37: 32.889: es: Глава 16
01: 44: 44.737: es: Глава 17
pb.wtf



Скачать Тело через торрент https://i114.fastpic.ru/big/2021/0407/79/59980ced27fb054db66cfff91462ac79.jpeg Скачать фильм Тело через торрент бесплантно в хорошем качестве Описание: Грузовик сбивает человека, убегающего от кого-то или от чего-то в панике. Прибывшие на место полицейские выясняют, что это - ... 9.8 10 5
Info! Золотая раздача, скачанное не засчитывается.
Торрент: Зарегистрирован [2021-04-07 15:16] · скачан: 115 раз
Статус: √ проверено
Размер: 12.38 GB
Как cкачать? Как скачать Тело через торрент | UTorrent

% Раздел Тема Автор DL S | L
Фильмы 2012 [ 2.18 GB ] Тело / El Cuerpo / The Body [2012 BDRip] killermax2013 Скачать
11 | 0

28-11-2019 20:33  

Отключить всю рекламу на сайте

    Дорогой пользователь! Огромная просьба, поблагодарите релизера, оцените раздачу и оставьте свои комментарий, если Вы скачали Тело через торрент бесплатно! Внесите свою лепту в развитие PiratBit!
    Комментировать посты могут только пользователи прошедшие не сложную регистрацию
    Показать сообщения:    

    Тело через торрент
    Скачать бесплатно Тело
    Тело скачать торрент
    Тело смотреть онлайн
    Cкачать фильм Тело бесплатно
    Тело скачать торрент в хорошем качестве
    Тело смотреть онлайн бесплатно в хорошем качестве


    Вы не можете начинать темы
    Вы не можете отвечать на сообщения
    Вы не можете редактировать свои сообщения
    Вы не можете удалять свои сообщения
    Вы не можете голосовать в опросах
    Вы не можете прикреплять файлы к сообщениям
    Вы можете скачивать файлы