Достать ножи: Стеклянная луковица

MVO

Добыча

Дубляж

Уэнсдэй

1 сезон

Тор

Дубляж

13 клиническая

1 сезон

Жестокая ночь

MVO

Одни из нас

1 сезон

Deluxe

pack

Рекомендуем

30

Пиратка

ВАЖНО

ВАЖНО

Ghostwire

Пиратка

jed

RePack

nioh2

RePack

RDR2

RePack

NEED FOR SPEED™ PAYBACK

RePack

скачать торрент

Кинопоиск HD

Острые козырьки 6 сезон

6 сезон

FAR CRY 6

RePack

скачать торрент

Лицензия

скачать торрент

MVO

1

1 сезон

скачать торрент

1 сезон

скачать торрент

Лицензия

  

Снега больше не будет / Śniegu już nigdy nie będzie / Never Gonna Snow Again (Малгожата Шумовска, Михал Энглерт) [2020, драма, комедия, WEBRip-AVC] Дубляж [Line] от MediaBit

Снега больше не будет через торрент pb.wtf

Размер: 1.45 GB | Добавлен: 1 год 9 мес. назад | Торрент скачан:81 раз
Смотреть онлайн | Скачать | Поддержите нас   

08-04-2021 17:05 Снега больше не будет Скачать торрент  


Снега больше не будет / Śniegu już nigdy nie będzie / Never Gonna Snow Again
Название: Снега больше не будет
Оригинальное название: Śniegu już nigdy nie będzie / Never Gonna Snow Again
Год выхода: 2020
Жанр: драма, комедия
Режиссер: Малгожата Шумовска, Михал Энглерт
В ролях: Алек Утгофф, Майя Осташевска, Агата Кулеша, Катажина Фигура, Вероника Розати, Лукаш Симлат, Кшиштоф Чечот, Анджей Хыра, Мацей Дросио, Оляф Мархвицкий

Описание: Женя был в Чернобыле в момент аварии. Возможно, из-за нее он обрел особые способности. Сейчас он – успешный массажист, который лечит не только тело, но и душу. Богатые клиенты доверяют ему свои тревоги, переживания и сокровенные секреты. Так Женя превратился в гуру: одинокие и несчастные, несмотря на своё богатство, люди спешат на массаж, чтобы услышать, как жить дальше.



Страна: Польша, Германия
Продолжительность: 01:55:41
Перевод: Профессиональный (дублированный) - Line



Информация о файле:
Кодек: AVC
Формат: MKV
Качество: WEBRip-AVC
Видео: MPEG-4 AVC, 1024x428, 25.000 fps, 1603 kbps
Аудио RU: AC3, 2 ch, 48 kHz, 192 kbps
Субтитры: Польские, английские
Навигация по главам: Да

семпл
x264 info: frame I:935 Avg QP: 9.70 size: 80826
x264 info: frame P:44032 Avg QP:12.53 size: 20351
x264 info: frame B:128567 Avg QP:16.05 size: 3254
x264 info: consecutive B-frames: 2.0% 3.9% 3.9% 68.4% 5.6% 12.2% 1.1% 0.4% 0.4% 0.5% 0.2% 0.4% 0.9%
General
Unique ID : 44802594107263274704812311022038855479 (0x21B4AA6F196AB4233EC10B989502AF37)
Complete name : D:uTorrentРипы_от_wolf1245_MediaBitNever Gonna Snow Again.2020.Дубляж.Line.WEB-DLRip-AVC.[wolf1245.MediaBit].mkv
Format : Matroska
Format version : Version 4
File size : 1.45 GiB
Duration : 1 h 55 min
Overall bit rate : 1 796 kb/s
Movie name : Never Gonna Snow Again.2020.Дубляж.Line.WEB-DLRip-AVC.[wolf1245.MediaBit]
Encoded date : UTC 2021-04-08 16:52:38
Writing application : mkvmerge v56.0.0 ('Strasbourg / St. Denis') 64-bit
Writing library : libebml v1.4.2 + libmatroska v1.6.4
Video
ID : 1
Format : AVC
Format/Info : Advanced Video Codec
Format profile : [email protected]
Format settings : CABAC / 12 Ref Frames
Format settings, CABAC : Yes
Format settings, Reference frames : 12 frames
Codec ID : V_MPEG4/ISO/AVC
Duration : 1 h 55 min
Bit rate : 1 603 kb/s
Width : 1 024 pixels
Height : 428 pixels
Display aspect ratio : 2.40:1
Frame rate mode : Constant
Frame rate : 25.000 FPS
Color space : YUV
Chroma subsampling : 4:2:0
Bit depth : 8 bits
Scan type : Progressive
Bits/(Pixel*Frame) : 0.146
Stream size : 1.29 GiB (89%)
Title : [wolf1245.MediaBit]
Writing library : x264 core 157 r2958 57baac4
Encoding settings : cabac=1 / ref=12 / deblock=1:0:0 / analyse=0x3:0x133 / me=umh / subme=10 / psy=1 / psy_rd=1.00:0.00 / mixed_ref=1 / me_range=32 / chroma_me=1 / trellis=2 / 8x8dct=1 / cqm=0 / deadzone=21,11 / fast_pskip=1 / chroma_qp_offset=-2 / threads=10 / lookahead_threads=2 / sliced_threads=0 / nr=0 / decimate=1 / interlaced=0 / bluray_compat=0 / constrained_intra=0 / bframes=12 / b_pyramid=2 / b_adapt=2 / b_bias=0 / direct=3 / weightb=1 / open_gop=0 / weightp=2 / keyint=250 / keyint_min=25 / scenecut=40 / intra_refresh=0 / rc_lookahead=60 / rc=2pass / mbtree=1 / bitrate=1603 / ratetol=1.0 / qcomp=0.60 / qpmin=0 / qpmax=69 / qpstep=4 / cplxblur=20.0 / qblur=0.5 / vbv_maxrate=50000 / vbv_bufsize=62500 / nal_hrd=none / filler=0 / ip_ratio=1.40 / aq=1:0.80
Language : English
Default : Yes
Forced : No
Audio
ID : 2
Format : AC-3
Format/Info : Audio Coding 3
Commercial name : Dolby Digital
Codec ID : A_AC3
Duration : 1 h 55 min
Bit rate mode : Constant
Bit rate : 192 kb/s
Channel(s) : 2 channels
Channel layout : L R
Sampling rate : 48.0 kHz
Frame rate : 31.250 FPS (1536 SPF)
Bit depth : 32 bits
Compression mode : Lossy
Stream size : 159 MiB (11%)
Title : Дубляж (Line)
Language : Russian
Service kind : Complete Main
Default : Yes
Forced : No
Text #1
ID : 3
Format : UTF-8
Codec ID : S_TEXT/UTF8
Codec ID/Info : UTF-8 Plain Text
Duration : 1 h 39 min
Bit rate : 4 b/s
Count of elements : 147
Stream size : 3.52 KiB (0%)
Title : Forced
Language : Polish
Default : No
Forced : No
Text #2
ID : 4
Format : UTF-8
Codec ID : S_TEXT/UTF8
Codec ID/Info : UTF-8 Plain Text
Duration : 1 h 46 min
Bit rate : 21 b/s
Count of elements : 673
Stream size : 16.9 KiB (0%)
Title : Full
Language : English
Default : No
Forced : No
Релиз от: amp; MediaBit




Скачать Снега больше не будет через торрент https://i114.fastpic.ru/big/2021/0408/47/43c8786fa6dd26db4df7dc26cc8ced47.jpg Скачать, смотреть онлайн Снега больше не будет бесплантно в хорошем качестве Описание: Женя был в Чернобыле в момент аварии. Возможно, из-за нее он обрел особые способности. Сейчас он – успешный массажист, который ... 10 10 1
Торрент: Зарегистрирован [2021-04-08 17:05] · скачан: 81 раз
Статус: T временная
Размер: 1.45 GB
Как cкачать? Как скачать Снега больше не будет через торрент | UTorrent

28-11-2019 20:33  


Отключить вcю реклaмy на сайте, в т.ч. и в плеере онлайн просмотра!

    Дорогой пользователь! Огромная просьба, поблагодарите релизера, оцените раздачу и оставьте свои комментарий, если Вы скачали Снега больше не будет через торрент бесплатно!!
    Комментировать посты могут только пользователи прошедшие не сложную регистрацию
    Показать сообщения:    


    Снега больше не будет через торрент
    Скачать бесплатно Снега больше не будет
    Снега больше не будет скачать торрент
    Снега больше не будет смотреть онлайн
    Cкачать фильм Снега больше не будет бесплатно
    Снега больше не будет скачать торрент в хорошем качестве
    Снега больше не будет смотреть онлайн бесплатно в хорошем качестве
    Вы не можете начинать темы
    Вы не можете отвечать на сообщения
    Вы не можете редактировать свои сообщения
    Вы не можете удалять свои сообщения
    Вы не можете голосовать в опросах
    Вы не можете прикреплять файлы к сообщениям
    Вы можете скачивать файлы
    Снега больше не будет / Śniegu już nigdy nie będzie / Never Gonna Snow Again [2020, драма, комедия, WEBRip-AVC] Дубляж [Line] от MediaBit смотреть онлайн, скачать торрент picoco.icu