Достать ножи: Стеклянная луковица

MVO

Добыча

Дубляж

Уэнсдэй

1 сезон

Тор

Дубляж

13 клиническая

1 сезон

Жестокая ночь

MVO

Одни из нас

1 сезон

Deluxe

pack

Рекомендуем

30

Пиратка

ВАЖНО

ВАЖНО

Ghostwire

Пиратка

jed

RePack

nioh2

RePack

RDR2

RePack

NEED FOR SPEED™ PAYBACK

RePack

скачать торрент

Кинопоиск HD

Острые козырьки 6 сезон

6 сезон

FAR CRY 6

RePack

скачать торрент

Лицензия

скачать торрент

MVO

1

1 сезон

скачать торрент

1 сезон

скачать торрент

Лицензия

  

Гуляй, Вася! Свидание на Бали (Роман Каримов) [2021, комедия, WEB-DLRip-AVC]

Гуляй, Вася! Свидание на Бали через торрент pb.wtf

Раздают: 3 [ 0 KB/s ]
Размер: 1.51 GB | Добавлен: 1 год 9 мес. назад | Торрент скачан:971 раз
Смотреть онлайн | Скачать | Поддержите нас   

09-04-2021 12:34 Гуляй, Вася! Свидание на Бали Скачать торрент  

Гуляй, Вася! Свидание на Бали

Страна: Россия
Жанр: комедия
Год выпуска: 2021
Продолжительность: 01:49:52

Перевод: Не требуется
Субтитры: нет
Оригинальная аудиодорожка: русский

Режиссер: Роман Каримов

В ролях: Любовь Аксенова, Борис Дергачев, Роман Курцын, Сергей Аброскин, Вера Кинчева, Святослав Королев, Владимир Карпук, Ефим Петрунин, Софья Райзман, Эндрю Суброто

Описание: Паше опять выпала великолепная возможность изменить жене с красивой Васей. Максу выпала возможность уничтожить Митю и вернуть Настю. Все герои сойдутся на острове Бали, где их ждут погони, бои без правил и невероятные приключения.



Релиз:

Автор рипа: stalkerok

Сэмпл

Качество видео: WEB-DLRip-AVC | Исходник: Gulyay.Vasya.Svidanie.na.Bali.2021.1080p.KP.WEB-DL.DDP5.1.H.264-EniaHD (thx karvai)
Формат видео: MKV
Видео кодек: AVC
Аудио кодек: AC3
Видео: AVC, 1582 Кбит/сек, 960x402 (2.40:1), 24 кадр/сек
Аудио: AC3, 384 Кбит/сек, 48 КГц, 5.1 - русский
---[Information] [09.04.2021 15:09:13] x264 [info]: frame I:1308 Avg QP:18.79 size: 43473
---[Information] [09.04.2021 15:09:13] x264 [info]: frame P:43753 Avg QP:20.64 size: 15982
---[Information] [09.04.2021 15:09:13] x264 [info]: frame B:113147 Avg QP:23.89 size: 4841
---[Information] [09.04.2021 15:09:13] x264 [info]: consecutive B-frames: 5.2% 5.6% 12.0% 43.0% 11.7% 15.6% 2.3% 2.9% 1.2% 0.1% 0.1% 0.1% 0.1% 0.1% 0.2%

General
Unique ID : 107152657020642621566670428214654070813 (0x509CD9E039EBA525E0C461980112F01D)
Complete name : J:\Gulyay.Vasya.Svidanie.na.Bali\Gulyay.Vasya.Svidanie.na.Bali.2021.WEB-DLRip.x264.Rus.stalkerok.New-Team.mkv
Format : Matroska
Format version : Version 4
File size : 1.51 GiB
Duration : 1 h 49 min
Overall bit rate : 1 968 kb/s
Movie name : Гуляй, Вася! Свидание на Бали (2021) | Rip by stalkerok
Encoded date : UTC 2021-04-09 12:13:37
Writing application : mkvmerge v55.0.0 ('Waiting For Space') 64-bit
Writing library : libebml v1.4.2 + libmatroska v1.6.4

Video
ID : 1
Format : AVC
Format/Info : Advanced Video Codec
Format profile : [email protected]
Format settings : CABAC / 12 Ref Frames
Format settings, CABAC : Yes
Format settings, Reference frames : 12 frames
Codec ID : V_MPEG4/ISO/AVC
Duration : 1 h 49 min
Bit rate : 1 582 kb/s
Width : 960 pixels
Height : 402 pixels
Display aspect ratio : 2.40:1
Frame rate mode : Constant
Frame rate : 24.000 FPS
Color space : YUV
Chroma subsampling : 4:2:0
Bit depth : 8 bits
Scan type : Progressive
Bits/(Pixel*Frame) : 0.171
Stream size : 1.21 GiB (80%)
Title : Rip by stalkerok
Writing library : x264 core 161 r3043+53M 5ab00ad t_mod_New [(8 & 10)[email protected] X86_64]
Encoding settings : cabac=1 / ref=12 / deblock=1:-3:-2 / analyse=0x3:0x133 / me=umh / subme=10 / psy=1 / fade_compensate=0.00 / psy_rd=1.00:0.00 / mixed_ref=1 / me_range=32 / chroma_me=1 / trellis=2 / 8x8dct=1 / cqm=0 / deadzone=21,11 / fast_pskip=0 / chroma_qp_offset=-2 / threads=12 / lookahead_threads=3 / sliced_threads=0 / nr=0 / decimate=1 / interlaced=0 / bluray_compat=0 / constrained_intra=0 / fgo=0 / bframes=14 / b_pyramid=2 / b_adapt=2 / b_bias=0 / direct=3 / weightb=1 / open_gop=0 / weightp=2 / keyint=240 / keyint_min=23 / scenecut=40 / intra_refresh=0 / rc_lookahead=60 / rc=crf / mbtree=0 / crf=19.7000 / qcomp=0.65 / qpmin=0:0:0 / qpmax=69:69:69 / qpstep=4 / vbv_maxrate=50000 / vbv_bufsize=62500 / crf_max=0.0 / nal_hrd=none / filler=0 / ip_ratio=1.40 / pb_ratio=1.30 / aq=3:1.00 / aq-sensitivity=10.00 / aq-factor=1.00:1.00:1.00 / aq2=0 / aq3=0
Default : Yes
Forced : No

Audio
ID : 2
Format : AC-3
Format/Info : Audio Coding 3
Commercial name : Dolby Digital
Codec ID : A_AC3
Duration : 1 h 49 min
Bit rate mode : Constant
Bit rate : 384 kb/s
Channel(s) : 6 channels
Channel layout : L R C LFE Ls Rs
Sampling rate : 48.0 kHz
Frame rate : 31.250 FPS (1536 SPF)
Compression mode : Lossy
Stream size : 302 MiB (20%)
Language : Russian
Service kind : Complete Main
Default : Yes
Forced : No



Скачать Гуляй, Вася! Свидание на Бали через торрент http://i6-imageban-ru.translate.goog/out/2017/09/18/2ff75c0c358795c5946784cc1680714d.png Скачать, смотреть онлайн Гуляй, Вася! Свидание на Бали бесплантно в хорошем качестве Описание: Паше опять выпала великолепная возможность изменить жене с красивой Васей. Максу выпала возможность уничтожить Митю и вернуть ... 8.7 10 15
Info! Золотая раздача, скачанное не засчитывается.
Торрент: Зарегистрирован [2021-04-09 12:34] · скачан: 971 раз
Статус: √ проверено
Размер: 1.51 GB
Как cкачать? Как скачать Гуляй, Вася! Свидание на Бали через торрент | UTorrent

% Раздел Тема Автор DL S | L
Наши фильмы (HD, WEB-DL 720p, 1080p) [ 4.6 GB ] Гуляй, Вася! Свидание на Бали | IVI | 1080p bober100 Скачать
2 | 0
Наши новые фильмы 2020 - 2023 [ 1.46 GB ] Гуляй, Вася! Свидание на Бали | IVI | DLRip bober100 Скачать
3 | 0

28-11-2019 20:33  


Отключить вcю реклaмy на сайте, в т.ч. и в плеере онлайн просмотра!

09-04-2021 12:39 Гуляй, Вася! Свидание на Бали Скачать торрент  

Опять раздел попутал...
перекиньте в наше кино



09-04-2021 20:42 Гуляй, Вася! Свидание на Бали Скачать торрент  

sokol_ok писал(а):

Опять раздел попутал...
перекиньте в наше кино

Это не наше кино ...



30-04-2021 02:58 Гуляй, Вася! Свидание на Бали Скачать торрент  

CTEHbKA писал(а):

sokol_ok писал(а):

Опять раздел попутал...
перекиньте в наше кино

Это не наше кино ...

Читать не умеем? Страна производства Россия.



    Дорогой пользователь! Огромная просьба, поблагодарите релизера, оцените раздачу и оставьте свои комментарий, если Вы скачали Гуляй, Вася! Свидание на Бали через торрент бесплатно!!
    Комментировать посты могут только пользователи прошедшие не сложную регистрацию
    Показать сообщения:    


    Гуляй, Вася! Свидание на Бали через торрент
    Скачать бесплатно Гуляй, Вася! Свидание на Бали
    Гуляй, Вася! Свидание на Бали скачать торрент
    Гуляй, Вася! Свидание на Бали смотреть онлайн
    Cкачать фильм Гуляй, Вася! Свидание на Бали бесплатно
    Гуляй, Вася! Свидание на Бали скачать торрент в хорошем качестве
    Гуляй, Вася! Свидание на Бали смотреть онлайн бесплатно в хорошем качестве
    Вы не можете начинать темы
    Вы не можете отвечать на сообщения
    Вы не можете редактировать свои сообщения
    Вы не можете удалять свои сообщения
    Вы не можете голосовать в опросах
    Вы не можете прикреплять файлы к сообщениям
    Вы можете скачивать файлы
    Гуляй, Вася! Свидание на Бали [2021, комедия, WEB-DLRip-AVC] смотреть онлайн, скачать торрент picoco.icu