Доктор Стрэндж

Лицензия

Добыча

MVO

Дом дракона

1 сезон

Тор

Лицензия

Мэверик

Лицензия

Там, где раки поют

MVO

Властелин колец

1 сезон

Ultimate

pack

Рекомендуем

30

Repack

ВАЖНО

ВАЖНО

Ghostwire

RePack

jed

RePack

nioh2

RePack

RDR2

RePack

NEED FOR SPEED™ PAYBACK

RePack

скачать торрент

Кинопоиск HD

Острые козырьки 6 сезон

6 сезон

FAR CRY 6

RePack

скачать торрент

Лицензия

скачать торрент

MVO

1

1 сезон

скачать торрент

1 сезон

скачать торрент

Лицензия

  

Одиночка / A Man Apart (Ф. Гэри Грей) [2003 г., Боевик, триллер, драма, криминал, BDRip 720p / 60 FPS, Дубляж] (Open Matte) от R.G. HD-Films

Одиночка через торрент pb.wtf

Размер: 4.95 GB | Добавлен: 1 год 5 мес. назад | Торрент скачан:52 раза
Смотреть онлайн | Скачать   

09-04-2021 14:22 Одиночка Скачать торрент  

Одиночка / A Man Apart
Год выпуска: 2003
Страна: Германия, США
Жанр: Боевик, триллер, драма, криминал
Продолжительность: 01:49:27
Перевод: Дубляж
Субтитры: Russian, English

Режиссер: Ф. Гэри Грей

Бюджет: $36 000 000
Премьера в мире: 17 июля 2003

rating

В ролях: Вин Дизель, Лоренц Тейт, Тимоти Олифант, Джино Сильва, Жаклин Обрадорс, Стив Истин, Хуан Фернандес, Джефф Кобер, Марко Родригес, Майк Морофф, Эмилио Ривера, Джордж Шарперсон, Малик Строутер, Элис Эмтер, Джим Боэк, Рубелио Брекемонте, Бен Брэй, Норм Комптон, Атьяна Кунс-Паркер, Эстебан Куето, Кен Давитян, Эйприл Флауэрс, Элиан Фитц-Картер, Роберт Фрад, Захари Джон Гонзалес, Ричард Гросс, Ричард Хаж, Паула Харрисон, Тоби Холгин, Терри Хойос, Томас Копаче, Джулия Ли, Ф. Валентино Моралес, Скотт Рейц, Джо Родригез, Мик Скриба, Каррин Стеффанс-МакКрэри

Описание: Вин Дизель в роли агента Шона Веттера, оперативника, борющегося с контрабандой наркотиков из Мексики. После того, как глава наркокартели был заключен в тюрьму, появляется новый таинственный персонаж, известный как Дьябло, который берет в свои руки контроль над всем трафиком.
Когда в ходе проваленной операции убивают жену Веттера, он и его коллега должны внедриться в преступный картель, чтобы вычислить неуловимого Дьябло.

Качество: BDRip 720p / 60 FPS
Формат: MKV
Видео кодек: H.264
Аудио кодек: AC3
Видео: x264, 1280 x 720 ( 16:9 ), 6084 kbps, 60,000 fps, ( 0.110 bpp)
Аудио#1: Русский, AC-3, 48.0 KHz, 6 ch, 384 Kbps Dub [МОСФИЛЬМ-Мастер]
Релиз от: Автор рипа: slaventi-69
Общее
Уникальный идентификатор : 210852672034211914808134571560372004331 (0x9EA0BF5BAAB60F40E8CD1ADEB2B7E5EB)
Полное имя : F:\A.Man.Apart.(2003)BDRip.720p.(60 Fps).(Open Matte).mkv
Формат : Matroska
Версия формата : Version 4
Размер файла : 4,95 Гбайт
Продолжительность : 1 ч. 49 м.
Общий поток : 6472 Кбит/сек
Название фильма : Одиночка / A Man Apart (2003) BDRip 720p (60 Fps) | Open Matte
Дата кодирования : UTC 2021-04-09 13:54:56
Программа кодирования : mkvmerge v52.0.0 ('Secret For The Mad') 64-bit
Библиотека кодирования : libebml v1.4.1 + libmatroska v1.6.2

Видео
Идентификатор : 1
Формат : AVC
Формат/Информация : Advanced Video Codec
Профиль формата : [email protected]
Настройки формата : CABAC / 8 Ref Frames
Параметр CABAC формата : Да
Параметр RefFrames формата : 8 кадров
Идентификатор кодека : V_MPEG4/ISO/AVC
Продолжительность : 1 ч. 49 м.
Битрейт : 6084 Кбит/сек
Ширина : 1280 пикселей
Высота : 720 пикселей
Соотношение сторон : 16:9
Режим частоты кадров : Постоянный
Частота кадров : 60,000 кадров/сек
Цветовое пространство : YUV
Субдискретизация насыщенности : 4:2:0
Битовая глубина : 8 бит
Тип развёртки : Прогрессивная
Бит/(Пиксели*Кадры) : 0.110
Размер потока : 4,65 Гбайт (94%)
Заголовок : slaventi-69 ( R.G. HD-Films | 60 fps )
Библиотека кодирования : x264 core 130 r2273 b3065e6
Настройки программы : cabac=1 / ref=8 / deblock=1:0:0 / analyse=0x3:0x133 / me=umh / subme=9 / psy=1 / psy_rd=1.00:0.00 / mixed_ref=1 / me_range=32 / chroma_me=1 / trellis=2 / 8x8dct=1 / cqm=0 / deadzone=21,11 / fast_pskip=0 / chroma_qp_offset=-2 / threads=12 / lookahead_threads=2 / sliced_threads=0 / nr=0 / decimate=1 / interlaced=0 / bluray_compat=0 / constrained_intra=0 / bframes=5 / b_pyramid=2 / b_adapt=2 / b_bias=0 / direct=2 / weightb=1 / open_gop=0 / weightp=2 / keyint=250 / keyint_min=25 / scenecut=40 / intra_refresh=0 / rc=crf / mbtree=0 / crf=20.3 / qcomp=0.60 / qpmin=0 / qpmax=69 / qpstep=4 / ip_ratio=1.40 / pb_ratio=1.30 / aq=1:1.00
Язык : English
Default : Да
Forced : Нет

Аудио
Идентификатор : 2
Формат : AC-3
Формат/Информация : Audio Coding 3
Коммерческое название : Dolby Digital
Идентификатор кодека : A_AC3
Продолжительность : 1 ч. 49 м.
Вид битрейта : Постоянный
Битрейт : 384 Кбит/сек
Каналы : 6 каналов
Channel layout : L R C LFE Ls Rs
Частота : 48,0 КГц
Частота кадров : 31,250 кадров/сек (1536 SPF)
Битовая глубина : 16 бит
Метод сжатия : С потерями
Размер потока : 301 Мбайт (6%)
Заголовок : Dub [МОСФИЛЬМ-мастер]
Язык : Russian
ServiceKind/String : Complete Main
Default : Да
Forced : Нет

Текст #1
Идентификатор : 3
Формат : UTF-8
Идентификатор кодека : S_TEXT/UTF8
Идентификатор кодека/Информация : UTF-8 Plain Text
Продолжительность : 1 ч. 43 м.
Битрейт : 70 бит/сек
ElementCount : 942
Размер потока : 53,5 Кбайт (0%)
Заголовок : R5
Язык : Russian
Default : Нет
Forced : Нет

Текст #2
Идентификатор : 4
Формат : UTF-8
Идентификатор кодека : S_TEXT/UTF8
Идентификатор кодека/Информация : UTF-8 Plain Text
Продолжительность : 1 ч. 41 м.
Битрейт : 55 бит/сек
ElementCount : 1197
Размер потока : 41,3 Кбайт (0%)
Заголовок : SDH
Язык : English
Default : Нет
Forced : Нет

Меню
00:00:00.000 : en:20 Tons a Month
00:03:32.834 : en:No-Gun Raid
00:11:24.168 : en:Home Sweet Home
00:12:34.168 : en:The Drug War Is On
00:14:28.335 : en:Memo's New Orders
00:16:58.835 : en:Survival of the Whipped
00:21:20.169 : en:Home Invasion
00:25:04.536 : en:"Where Is Stacey?"
00:30:03.536 : en:Face to Face, Ten Feet Away
00:34:46.836 : en:Capone Can Sniff It
00:37:57.003 : en:Overdose in the Attic
00:42:46.003 : en:The New Guy's Name
00:46:25.203 : en:Hollywood Jack
00:53:01.503 : en:The Last Safe Place
00:54:50.503 : en:The Widower's Pact
00:57:24.503 : en:A Good Businessman
01:03:09.170 : en:The Deal Goes Down... in Flames
01:10:03.170 : en:"Sean, You're Done"
01:11:59.504 : en:Becoming a Monster
01:17:26.338 : en:The Gang United
01:21:08.338 : en:South of Nowhere
01:24:29.172 : en:Follow the Money
01:28:08.040 : en:The Old Haunt
01:35:40.173 : en:"If I Wanted You Dead..."
01:41:41.707 : en:Gone But Not Forgotten
01:44:22.508 : en:End Credits

Просьба к переливающим на другие сайты, в оформлении указывайте пожалуйста авторство группы R.G. HD-Films



Скачать Одиночка через торрент http://i67.fastpic.ru/big/2014/0720/8d/8ad6f18e936c23c3b8bb43415648718d.jpg Скачать, смотреть онлайн Одиночка бесплантно в хорошем качестве Описание: Вин Дизель в роли агента Шона Веттера, оперативника, борющегося с контрабандой наркотиков из Мексики. После того, как глава ... 10 10 4
Торрент: Зарегистрирован [2021-04-09 14:22] · скачан: 52 раз
Статус: √ проверено
Размер: 4.95 GB
Как cкачать? Как скачать Одиночка через торрент | UTorrent

% Раздел Тема Автор DL S | L
Фильмы [HD 720p, 1080p] (Хороший звук DUB, MVO) [ 5.42 GB ] Одиночка / A man apart | DUB | 720p by msltel msltel Скачать
1 | 1
Фильмы [HD 720p, 1080p] (Хороший звук DUB, MVO) [ 13.38 GB ] Одиночка / A man apart | DUB | 1080p by msltel msltel Скачать
1 | 0
Релизы по Парсеру [Игры, Сериалы и Фильмы и другое...] [ 747 MB ] Одиночка / A Man Apart | AVO | HDRip sanekbest1 Скачать
1 | 0
Фильмы [HD 720p, 1080p] (Хороший звук DUB, MVO) [ 2.16 GB ] Одиночка / A Man Apart | | BDRip ACFIORENTINA Скачать
1 | 0
Фильмы 2001-2005 [ 2.05 GB ] Одиночка / A Man Apart | DUB | DVDRip, DUB, лицензия DJERG Скачать
1 | 0
Фильмы 2001-2005 [ 2.14 GB ] Одиночка / A Man Apart | DUB + Оригинал | HDRip-AVC, DUB + Оригинал lev1244v Скачать
1 | 0
Фильмы 2001-2005 [ 1.37 GB ] Одиночка / A man apart | | DVDRip 220v0lt Скачать
1 | 0

28-11-2019 20:33  


Отключить вcю реклaмy на сайте, в т.ч. и в плеере онлайн просмотра!

    Дорогой пользователь! Огромная просьба, поблагодарите релизера, оцените раздачу и оставьте свои комментарий, если Вы скачали Одиночка через торрент бесплатно!!
    Комментировать посты могут только пользователи прошедшие не сложную регистрацию
    Показать сообщения:    


    Одиночка через торрент
    Скачать бесплатно Одиночка
    Одиночка скачать торрент
    Одиночка смотреть онлайн
    Cкачать фильм Одиночка бесплатно
    Одиночка скачать торрент в хорошем качестве
    Одиночка смотреть онлайн бесплатно в хорошем качестве
    Вы не можете начинать темы
    Вы не можете отвечать на сообщения
    Вы не можете редактировать свои сообщения
    Вы не можете удалять свои сообщения
    Вы не можете голосовать в опросах
    Вы не можете прикреплять файлы к сообщениям
    Вы можете скачивать файлы