1 сезон

1 сезон

iTunes

1

iTunes

Кинопоиск HD

iTunes

13

1 сезон

RePack

30

Deluxe

ВАЖНО

ИГРА 18+

pack

RePack

MK11
pack

Легкие деньги

RePack

jed

RePack

fifa19

RePack

RDR2

RePack

NEED FOR SPEED™ PAYBACK

4 сезон

9 сезон

Бесстыжие 9 сезон

Все сериалы

все сериалы на PB.wtf

RePack

FAR CRY 5
  
Magnet ссылка

Манифест / Manifest / Сезон: 3 / Серии 1-8 из 13 (Дэвид Фрэнкел, Феликс Акала) [2021, США, Драма, Детектив, WEB-DLRip-AVC] MVO [LostFilm] pb.wtf

Манифест через торрент pb.wtf

Раздают: 1 [ 0 KB/s ]
Размер: 5.52 GB | Добавлен: 3 д. назад | Торрент скачан:2 раза
Скачать  

11-04-2021 03:16 Манифест Скачать торрент  

Манифест / Manifest


  • Год выпуска: 2021
  • Страна: США
  • Жанр: Драма, Детектив
  • Продолжительность: ~ 00:45:00 (Серия)
  • Перевод: Профессиональный многоголосый [LostFilm]
  • Режиссер: Дэвид Фрэнкел, Феликс Акала
  • В ролях:
    Джошуа Даллас, Альфредо Нарцисо, Афина Карканис, Мелисса Роксбур, Дж.Р. Рамирез, Луна Блэйз Бойд, Тим Мориарти, Джек Мессина, Жюльенна Хэнзелка Ким, Дастин Николс и др.
    Описание:


    Семейство Стоун, и без того переживающее не лучшие времена, попадает в череду неприятностей по пути домой с отдыха на Ямайке. В аэропорту им заявляют, что число проданных билетов меньше количества пассажиров, и предлагают улететь на другом рейсе. Сотрудница нью-йоркской полиции Макейла (Melissa_Roxburgh/Мелисса Роксбур), ее брат Бен (Josh_Dallas/Джош Даллас) и его больной лейкемией сын Кэл (Jack Messina/Джек Мессина) соглашаются на время расстаться с родными и отправиться домой позже. Остальные члены семьи садятся на свой рейс до Нью-Йорка. На этом злоключения Стоунов не заканчиваются: поднявшись в воздух на борту рейса 828, Макейла, Бен и Кэл попадают в сильную турбулентность, чуть не разбившую самолет вдребезги. Капитану чудом удается спасти пассажиров и все же посадить самолет в Нью-Йорке, однако их неудачи только начинаются. Прямо на взлетную полосу приезжают специалисты из НАСА, ФБР, АНБ, врачи и СМИ, весь мир с удивлением смотрит на пассажиров борта 828. Все дело в том, что с момента их вылета из Ямайки прошло пять лет, и все они давно считались погибшими. Пока ученые разных специальностей выясняют, как самолет мог оставаться в воздухе пять лет и почему ни один из членов экипажа или пассажиров не постарел ни на день, обескураженные люди пытаются вернуться к нормальной жизни. Загадочное происшествие отобрало у них столько времени, хотя для них прошло всего несколько часов. Некоторые потеряли родных, дом, работу, привычные удобства, однако они еще не догадываются, что также кое-что приобрели. Помогут ли таинственные голоса в их головах разгадать причину временного скачка и вернуть им их жизни? А быть может, сама вселенная выбрала этих на первый взгляд обычных людей для некой более важной миссии?..
  • Рейтинг:

    rating


  • Качество: WEB-DLRip-AVC
  • Формат: :MKV
  • Видео кодек: AVC
  • Аудио кодек: AC3
  • Видео: 1542 Кбит/сек, 1024*576 (16:9), в 23,976 (24000/1001) кадра/сек, AVC
  • Аудио №1: Русский 384 Кбит/сек, 48,0 КГц, 16 бит, 2 канала, AC-3|[LostFilm]|
  • Аудио №2: Английский 384 Кбит/сек, 48,0 КГц, 16 бит, 2 канала, AC-3
    Для зрителей, скучающих по таинственным исчезновениям и путешествиям во времени, тех, кто до сих пор, как мантру, помнит магическую комбинацию цифр из «Lost/Остаться в живых» и недоумевает из-за преждевременного закрытия «The_Crossing/Переправы», канал NBC подготовил еще одну историю о чудесном спасении и мистических способностях. «Манифест» — фантастическая драма, к созданию которой причастны такие мастера больших и малых экранов, как Robert Zemeckis/Роберт Земекис («Назад в будущее») и David_Frankel/Дэвид Фрэнкел («Дьявол носит Prada»). Идущий по стопам хитов «Lost/Остаться в живых» и «The_4400/4400», сериал перенял у предшественников все самое лучшее: интригующий сюжет с кучей загадок, динамичный, не дающий заскучать темп повествования, элементы сверхъестественного и обаятельных персонажей, с каждым из которых легко ассоциировать себя. При этом авторы «Манифеста» сделали акцент не только на расследовании головоломок, но и на семейных ценностях, чем завоевали и более вдумчивую аудиторию. Шоу так полюбилось первым зрителям, что те, активно рекомендуя его знакомым, обеспечили ему третий по успешности старт за всю историю эфирного ТВ.
    Внимание! Раздача ведётся путём добавления новых серий; при каждом добавлении создаётся новый торрент. Чтобы начать докачку новой серии, пользователям необходимо сделать следующее:
    (1) остановить скачивание,
    (2) удалить старый торрент у себя из клиента (старые серии удалять не надо),
    (3) скачать новый торрент и запустить его у себя в клиенте вместо старого, при этом указать клиенту путь в старую папку куда и должно происходить скачивание новых серий.

    Ваш клиент при этом должен произвести хеширование (проверку) старой папки (если не производит сам - помогите ему сделать это), и будет докачивать только те серии которых у вас ещё нет. Старые серии при этом не удаляются, а продолжают раздаваться!

    Eсли вы уже удалили старые серии, то предотвратить повторную закачку старых серий можно, отжав галочку в соответствующих местах при запуске нового торрента. По возможности, желательно не удалять старые серии как можно дольше чтобы релизёр не столько продолжал раздавать старые серии, а смог сконцентрироваться на новых.
    Общее
    Уникальный идентификатор : 177450809105182544707840146189034289791 (0x857FC85E7257472F600BC7F62FF57A7F)
    Полное имя : J:\Манифест (Manifest) Сезон 3\Manifest.S03E01.(Хвостовой киль).WEB-DLRip-AVC.LostFilm.mkv
    Формат : Matroska
    Версия формата : Version 4
    Размер файла : 717 Мбайт
    Продолжительность : 42 м. 33 с.
    Общий поток : 2357 Кбит/сек
    Программа кодирования : XviD4PSP 8.0.59
    Библиотека кодирования : Lavf58.20.100
    ErrorDetectionType : Per level 1
    ENCODING_INFO : MATROSKA,WEBM > MKV Пользовательский

    Видео
    Идентификатор : 1
    Формат : AVC
    Формат/Информация : Advanced Video Codec
    Профиль формата : High@L3.1
    Настройки формата : CABAC / 4 Ref Frames
    Параметр CABAC формата : Да
    Параметр RefFrames формата : 4 кадра
    Идентификатор кодека : V_MPEG4/ISO/AVC
    Продолжительность : 42 м. 33 с.
    Битрейт : 1542 Кбит/сек
    Номинальный битрейт : 1800 Кбит/сек
    Ширина : 1024 пикселя
    Высота : 576 пикселей
    Соотношение сторон : 16:9
    Режим частоты кадров : Постоянный
    Частота кадров : 23,976 (24000/1001) кадра/сек
    Цветовое пространство : YUV
    Субдискретизация насыщенности : 4:2:0
    Битовая глубина : 8 бит
    Тип развёртки : Прогрессивная
    Бит/(Пиксели*Кадры) : 0.109
    Размер потока : 469 Мбайт (65%)
    Библиотека кодирования : x264 core 157 r2969 d4099dd
    Настройки программы : cabac=1 / ref=3 / deblock=1:-1:-1 / analyse=0x3:0x133 / me=hex / subme=7 / psy=1 / psy_rd=1.00:0.20 / mixed_ref=1 / me_range=16 / chroma_me=1 / trellis=1 / 8x8dct=1 / cqm=0 / deadzone=21,11 / fast_pskip=1 / chroma_qp_offset=-3 / threads=9 / lookahead_threads=1 / sliced_threads=0 / nr=0 / decimate=1 / interlaced=0 / bluray_compat=0 / constrained_intra=0 / bframes=3 / b_pyramid=2 / b_adapt=2 / b_bias=0 / direct=3 / weightb=1 / open_gop=0 / weightp=2 / keyint=240 / keyint_min=24 / scenecut=40 / intra_refresh=0 / rc_lookahead=40 / rc=cbr / mbtree=1 / bitrate=1800 / ratetol=1.0 / qcomp=0.60 / qpmin=0 / qpmax=69 / qpstep=4 / vbv_maxrate=1800 / vbv_bufsize=1285 / nal_hrd=none / filler=0 / ip_ratio=1.40 / aq=1:1.00
    Default : Да
    Forced : Нет
    ENCODING_INFO : H264 > X264 CBR 1800kbps HQ

    Аудио #1
    Идентификатор : 2
    Формат : AC-3
    Формат/Информация : Audio Coding 3
    Коммерческое название : Dolby Digital
    Идентификатор кодека : A_AC3
    Продолжительность : 42 м. 33 с.
    Вид битрейта : Постоянный
    Битрейт : 384 Кбит/сек
    Каналы : 2 канала
    ChannelLayout : L R
    Частота : 48,0 КГц
    Частота кадров : 31,250 кадров/сек (1536 SPF)
    Битовая глубина : 16 бит
    Метод сжатия : С потерями
    Размер потока : 117 Мбайт (16%)
    ServiceKind/String : Complete Main
    Default : Да
    Forced : Нет
    ENCODING_INFO : AC3 > AC3 CBR 384kbps

    Аудио #2
    Идентификатор : 3
    Формат : AC-3
    Формат/Информация : Audio Coding 3
    Коммерческое название : Dolby Digital
    Идентификатор кодека : A_AC3
    Продолжительность : 42 м. 33 с.
    Вид битрейта : Постоянный
    Битрейт : 384 Кбит/сек
    Каналы : 2 канала
    ChannelLayout : L R
    Частота : 48,0 КГц
    Частота кадров : 31,250 кадров/сек (1536 SPF)
    Битовая глубина : 16 бит
    Метод сжатия : С потерями
    Размер потока : 117 Мбайт (16%)
    ServiceKind/String : Complete Main
    Default : Нет
    Forced : Нет
    ENCODING_INFO : AC3 > AC3 CBR 384kbps



    Скриншоты:
    скриншот   скриншот   скриншот   скриншот   скриншот   скриншот   скриншот   
    скриншот  
    pb.wtf



  • Скачать Манифест через торрент https://pic1.kartinco.top/new/img/2021-04/11/mh0wiob4z8kbhb3gxguw2l18c.png Скачать фильм Манифест через торрент бесплантно в хорошем качестве Описание: Семейство Стоун, и без того переживающее не лучшие времена, попадает в череду неприятностей по пути домой с отдыха на Ямайке. В ... 8.3 10 3
    Торрент: Зарегистрирован [2021-05-11 00:15] · скачан: 2 раз
    Статус: √ проверено
    Размер: 5.52 GB
    Как cкачать? Как скачать Манифест через торрент | UTorrent



    Последний раз редактировалось: GEKADOL (2021-05-11 00:14), всего редактировалось 6 раз(а)

    28-11-2019 20:33  

    Отключить всю рекламу на сайте

    11-04-2021 05:23 Манифест Скачать торрент  

    крутой сериал, так ждал 3 сезон, спасибо большое)pb.wtf



    11-04-2021 22:56 Манифест Скачать торрент  

    Arron_H1De писал(а):

    крутой сериал, так ждал 3 сезон, спасибо большое)

    pb.wtf



      Дорогой пользователь! Огромная просьба, поблагодарите релизера, оцените раздачу и оставьте свои комментарий, если Вы скачали Манифест через торрент бесплатно! Внесите свою лепту в развитие PiratBit!
      Комментировать посты могут только пользователи прошедшие не сложную регистрацию
      Показать сообщения:    

      Манифест через торрент
      Скачать бесплатно Манифест
      Манифест скачать торрент
      Манифест смотреть онлайн
      Cкачать фильм Манифест бесплатно
      Манифест скачать торрент в хорошем качестве
      Манифест смотреть онлайн бесплатно в хорошем качестве


      Вы не можете начинать темы
      Вы не можете отвечать на сообщения
      Вы не можете редактировать свои сообщения
      Вы не можете удалять свои сообщения
      Вы не можете голосовать в опросах
      Вы не можете прикреплять файлы к сообщениям
      Вы можете скачивать файлы