1 сезон

1 сезон

iTunes

1

iTunes

Кинопоиск HD

iTunes

13

1 сезон

RePack

30

Deluxe

ВАЖНО

ИГРА 18+

pack

RePack

MK11
pack

Легкие деньги

RePack

jed

RePack

fifa19

RePack

RDR2

RePack

NEED FOR SPEED™ PAYBACK

4 сезон

9 сезон

Бесстыжие 9 сезон

Все сериалы

все сериалы на PB.wtf

RePack

FAR CRY 5
  
Magnet ссылка

Билал / Bilal: A New Breed of Hero (Хурам Эйч Аллави, Эйман Джамал) [2015 г., Мультфильм, боевик, приключения, BDRip 720p / 60 FPS, Дубляж iTunes] от R.G. HD-Films pb.wtf

Билал через торрент pb.wtf

Раздают: 8 [ 0 KB/s ]
Размер: 3.26 GB | Добавлен: 1 мес. 1 д. назад | Торрент скачан:106 раз
Скачать  

12-04-2021 12:07 Билал Скачать торрент  

Билал / Bilal: A New Breed of Hero
Год выпуска: 2015
Страна: ОАЭ, США, Швейцария
Жанр: Мультфильм, боевик, приключения
Продолжительность: 01:49:39
Перевод: Дубляж iTunes
Субтитры: Английские (Forced, Full, SDH)

Режиссер: Хурам Эйч Аллави, Эйман Джамал

Бюджет: $30 000 000
Премьера в мире: 9 декабря 2015

rating

Роли озвучивают: Адевале Акиннуойе-Агбадже, Иэн МакШейн, Чайна Энн МакКлейн, Томас Иэн Николас, Майкл Гросс, Синтия Кэй МакУильямс, Джейкоб Латимор, Фред Татаскьор, Джон Карри, Мик Вингерт

Описание: Тысячу лет тому назад храбрый мальчик, мечтавший стать великим воином, был похищен коварными врагами.

Вдали от дома, в мире, где все подчинено жажде наживы, где справедливость — лишь миф, он находит в себе силы возвысить свой голос и все изменить.

Качество: BDRip 720p / 60 FPS
Формат: MKV
Видео кодек: H.264
Аудио кодек: AC3
Видео: x264, 1280 x 536 ( 2,40:1 ), 3876 kbps, 60,000 fps, ( 0.094 bpp)
Аудио#1: Русский, AC-3, 48.0 KHz, 6 ch, 384 Kbps
Релиз от: Автор рипа: slaventi-69
x264 [info]: frame I:2169 Avg QP:15.32 size: 70685
x264 [info]: frame P:87461 Avg QP:16.98 size: 17922
x264 [info]: frame B:304688 Avg QP:20.13 size: 4803
x264 [info]: consecutive B-frames: 1.7% 1.9% 5.5% 12.7% 59.4% 18.7%


Общее
Уникальный идентификатор : 66431004527623454305390723536349850855 (0x31FA2565DCC886187D27AD3B1A686CE7)
Полное имя : F:\Bilal_A.New.Breed.of.Hero.(2015).BDRip.720p.(60 Fps).mkv
Формат : Matroska
Версия формата : Version 4
Размер файла : 3,26 Гбайт
Продолжительность : 1 ч. 49 м.
Общий поток : 4264 Кбит/сек
Название фильма : Билал / Bilal: A New Breed of Hero (2015) BDRip 720p (60 Fps)
Дата кодирования : UTC 2021-04-12 11:45:04
Программа кодирования : mkvmerge v52.0.0 ('Secret For The Mad') 64-bit
Библиотека кодирования : libebml v1.4.1 + libmatroska v1.6.2

Видео
Идентификатор : 1
Формат : AVC
Формат/Информация : Advanced Video Codec
Профиль формата : High@L4.1
Настройки формата : CABAC / 9 Ref Frames
Параметр CABAC формата : Да
Параметр RefFrames формата : 9 кадров
Идентификатор кодека : V_MPEG4/ISO/AVC
Продолжительность : 1 ч. 49 м.
Битрейт : 3876 Кбит/сек
Ширина : 1280 пикселей
Высота : 536 пикселей
Соотношение сторон : 2,40:1
Режим частоты кадров : Постоянный
Частота кадров : 60,000 кадров/сек
Цветовое пространство : YUV
Субдискретизация насыщенности : 4:2:0
Битовая глубина : 8 бит
Тип развёртки : Прогрессивная
Бит/(Пиксели*Кадры) : 0.094
Размер потока : 2,97 Гбайт (91%)
Заголовок : slaventi-69 ( R.G. HD-Films | 60 fps )
Библиотека кодирования : x264 core 130 r2273 b3065e6
Настройки программы : cabac=1 / ref=9 / deblock=1:-1:-1 / analyse=0x3:0x133 / me=umh / subme=9 / psy=1 / psy_rd=1.00:0.00 / mixed_ref=1 / me_range=32 / chroma_me=1 / trellis=2 / 8x8dct=1 / cqm=0 / deadzone=21,11 / fast_pskip=0 / chroma_qp_offset=-2 / threads=12 / lookahead_threads=2 / sliced_threads=0 / nr=0 / decimate=1 / interlaced=0 / bluray_compat=0 / constrained_intra=0 / bframes=5 / b_pyramid=2 / b_adapt=2 / b_bias=0 / direct=2 / weightb=1 / open_gop=0 / weightp=2 / keyint=250 / keyint_min=25 / scenecut=40 / intra_refresh=0 / rc=crf / mbtree=0 / crf=17.0 / qcomp=0.60 / qpmin=0 / qpmax=69 / qpstep=4 / ip_ratio=1.40 / pb_ratio=1.30 / aq=1:1.00
Язык : English
Default : Да
Forced : Нет

Аудио
Идентификатор : 2
Формат : AC-3
Формат/Информация : Audio Coding 3
Коммерческое название : Dolby Digital
Идентификатор кодека : A_AC3
Продолжительность : 1 ч. 49 м.
Вид битрейта : Постоянный
Битрейт : 384 Кбит/сек
Каналы : 6 каналов
Channel layout : L R C LFE Ls Rs
Частота : 48,0 КГц
Частота кадров : 31,250 кадров/сек (1536 SPF)
Битовая глубина : 16 бит
Метод сжатия : С потерями
Размер потока : 301 Мбайт (9%)
Заголовок : iTunes
Язык : Russian
ServiceKind/String : Complete Main
Default : Да
Forced : Нет

Текст #1
Идентификатор : 3
Формат : UTF-8
Идентификатор кодека : S_TEXT/UTF8
Идентификатор кодека/Информация : UTF-8 Plain Text
Продолжительность : 1 ч. 45 м.
Битрейт : 0 бит/сек
ElementCount : 10
Размер потока : 622 байт (0%)
Заголовок : Forced
Язык : English
Default : Нет
Forced : Нет

Текст #2
Идентификатор : 4
Формат : UTF-8
Идентификатор кодека : S_TEXT/UTF8
Идентификатор кодека/Информация : UTF-8 Plain Text
Продолжительность : 1 ч. 48 м.
Битрейт : 36 бит/сек
ElementCount : 889
Размер потока : 29,0 Кбайт (0%)
Язык : English
Default : Нет
Forced : Нет

Текст #3
Идентификатор : 5
Формат : UTF-8
Идентификатор кодека : S_TEXT/UTF8
Идентификатор кодека/Информация : UTF-8 Plain Text
Продолжительность : 1 ч. 49 м.
Битрейт : 50 бит/сек
ElementCount : 1426
Размер потока : 40,0 Кбайт (0%)
Заголовок : SDH
Язык : English
Default : Нет
Forced : Нет

Меню
00:00:00.000 : : Chapter 1
00:10:30.630 : : Chapter 2
00:19:38.969 : : Chapter 3
00:29:25.222 : : Chapter 4
00:41:30.196 : : Chapter 5
00:48:54.515 : : Chapter 6
00:57:00.709 : : Chapter 7
01:06:09.507 : : Chapter 8
01:16:42.264 : : Chapter 9
01:30:26.421 : : Chapter 10
01:39:44.145 : : Chapter 11
01:45:25.903 : : Chapter 12

Просьба к переливающим на другие сайты, в оформлении указывайте пожалуйста авторство группы R.G. HD-Films pb.wtf



Скачать Билал через торрент https://d.radikal.ru/d20/2007/33/f8f4a6e60cf7.png Скачать фильм Билал через торрент бесплантно в хорошем качестве Описание: Тысячу лет тому назад храбрый мальчик, мечтавший стать великим воином, был похищен коварными врагами.Вдали от дома, в мире, где ... 9.8 10 10
Info! Золотая раздача, скачанное не засчитывается.
Торрент: Зарегистрирован [2021-04-12 12:07] · скачан: 106 раз
Статус: √ проверено
Размер: 3.26 GB
Как cкачать? Как скачать Билал через торрент | UTorrent

28-11-2019 20:33  

Отключить всю рекламу на сайте

12-04-2021 12:30 Билал Скачать торрент  

Огромное спасибо за мульт! Из тех что за жизни смысл!
Жаль мани не хватает позолотить!pb.wtf



12-04-2021 12:52 Билал Скачать торрент  

михакруг писал(а):

Огромное спасибо за мульт! Из тех что за жизни смысл!
Жаль мани не хватает позолотить!

Раздача стала золотой благодаря:
Rushx(5000)
,
Смотрите в удовольствие, Спасибо за Золото.pb.wtf



    Дорогой пользователь! Огромная просьба, поблагодарите релизера, оцените раздачу и оставьте свои комментарий, если Вы скачали Билал через торрент бесплатно! Внесите свою лепту в развитие PiratBit!
    Комментировать посты могут только пользователи прошедшие не сложную регистрацию
    Показать сообщения:    

    Билал через торрент
    Скачать бесплатно Билал
    Билал скачать торрент
    Билал смотреть онлайн
    Cкачать фильм Билал бесплатно
    Билал скачать торрент в хорошем качестве
    Билал смотреть онлайн бесплатно в хорошем качестве


    Вы не можете начинать темы
    Вы не можете отвечать на сообщения
    Вы не можете редактировать свои сообщения
    Вы не можете удалять свои сообщения
    Вы не можете голосовать в опросах
    Вы не можете прикреплять файлы к сообщениям
    Вы можете скачивать файлы