Anonymous, доброй ночи, присоединяйтесь к нам в Telegram!, здесь всегда актуальный адрес сайта, оперативная поддержка и многое другое!

>

5.5

iTunes

7.4

iTunes

7.9

iTunes

1

7.7

1 сезон

6.8

iTunes

7.3

1 сезон

13

6.7

1 сезон

8.3

RePack

30

ULTIMATE

pack

9.9

Лицензия

ВАЖНО

ИГРА 18+

pack

7.3

RePack

MK11

7.7

RePack

jed

7.8

RePack

fifa19

8.5

RePack

RDR2

RePack

NEED FOR SPEED™ PAYBACK

4 сезон

9 сезон

Бесстыжие 9 сезон

Все сериалы

все сериалы на PB.wtf

RePack

FAR CRY 5

Anonymous, доброй ночи, мы катастрофически не успеваем собрать деньги на оплату серверов, помогите нам пожалуйста 5,10,15р., для нас важна любая помощь . В качестве благодарности мы отключим Вам всю рекламу на сайте (укажите свой ник в строку Ваше имя)!

×
  
Magnet ссылка

Милиционер с Рублёвки / Сезон: 1 / Серии: 1-15 из 15 (Полина Ануфриева) [2021, Комедия, SATRip] pb.wtf

Милиционер с Рублёвки через торрент pb.wtf

Раздают: 1 [ 0 KB/s ]
Размер: 5.13 GB | Добавлен: 5 мес. 26 д. назад | Торрент скачан:52 раза
Смотреть онлайн Милиционер с Рублёвки | Скачать    Ребята, помогите собрать деньги на оплату серверов!!!

12-04-2021 15:03 Милиционер с Рублёвки Скачать торрент  

Милиционер с Рублёвки
Год выпуска: 2021
Страна: Россия
Выпущено: Production, LEGIO FELIX по заказу телеканала ТНТ
Жанр: Комедия
Продолжительность: ~ 00:25:00
Перевод: Не требуется
Субтитры: отсутствуют

Режиссер: Полина Ануфриева



В ролях: Артём Сучков, Ольга Виниченко, Юрий Грубник, Артём Жигулин, Ирина Князьниделина, Дмитрий Ячевский, Ола Кейру, Владимир Гарцунов, Ольга Шеховцева, Сергей Ефремов, Юлия Майборода, Валентина Ляпина

Описание: Приквел сериала «Полицейский с Рублевки». Сюжет развивается в 1994 году, когда выпускник высшей школы милиции Володя Яковлев получает назначение на Рублёвку. Оперативник всегда работает в связке со следователем, и именно так Яковлев знакомится с Гудковой – уже тогда очень странной, но не такой потерянной для мира, какой мы её знаем по «Полицейскому с Рублёвки». Вдвоем они расследуют важные, но довольное сомнительные дела – то ищут банду пиратов, снимающих вторые части к культовым боевикам, то выясняют, кто украл чемодан с билетами «МММ». Помогает им в этом брат Яковлева, который ещё подростком знал, что ему предстоит работать в службе безопасности, а не в какой-то там милиции.

Качество: SATRip
Формат: AVI

Видео: XviD build 73, 720x304 (2.37:1), 25 fps, 1804 kbps, 0.33 bit/pixel
Аудио: MP3, 48 kHz, 2 ch, 192 kbps
скриншот  скриншот  скриншот  скриншот  

Общее
Полное имя : D:\Сериалы\Militsioner.s.rublevki.S01.XviD.SATRip.25Kuzmich\Militsioner.s.rublevki.s01.e01.XviD.SATRip.25Kuzmich.avi
Формат : AVI
Формат/Информация : Audio Video Interleave
Размер файла : 353 Мбайт
Продолжительность : 24 м. 35 с.
Общий поток : 2 007 Кбит/сек
Программа кодирования : VirtualDubMod 1.5.10.3 | www.virtualdub-fr.org || (build 2550/release)
Библиотека кодирования : VirtualDubMod build 2550/release

Видео
Идентификатор : 0
Формат : MPEG-4 Visual
Профиль формата : Advanced Simple@L5
Настройки формата : BVOP1
Параметр BVOP формата : 1
Параметр QPel формата : Нет
Параметр GMC формата : Без точки перехода
Параметр матрицы формата : Default (MPEG)
Идентификатор кодека : XVID
Идентификатор кодека/Подсказка : XviD
Продолжительность : 24 м. 35 с.
Битрейт : 1 805 Кбит/сек
Ширина : 720 пикселей
Высота : 304 пикселя
Соотношение сторон : 2,35:1
Частота кадров : 25,000 кадров/сек
Цветовое пространство : YUV
Субдискретизация насыщенности : 4:2:0
Битовая глубина : 8 бит
Тип развёртки : Прогрессивная
Метод сжатия : С потерями
Бит/(Пиксели*Кадры) : 0.330
Размер потока : 317 Мбайт (90%)
Библиотека кодирования : XviD 73

Аудио
Идентификатор : 1
Формат : MPEG Audio
Версия формата : Version 1
Профиль формата : Layer 3
Настройки формата : Joint stereo / MS Stereo
Идентификатор кодека : 55
Идентификатор кодека/Подсказка : MP3
Продолжительность : 24 м. 35 с.
Вид битрейта : Постоянный
Битрейт : 192 Кбит/сек
Каналы : 2 канала
Частота : 48,0 КГц
Частота кадров : 41,667 кадра/сек (1152 SPF)
Метод сжатия : С потерями
Размер потока : 33,8 Мбайт (10%)
Выравнивание : Соединение по промежуткам
Продолжительность промежутка : 40 мс. (1,00 видеокадр)
Время предзагрузки промежутка : 504 мс.
Библиотека кодирования : LAME3.99r
Настройки программы : -m j -V 4 -q 2 -lowpass 18.6 -b 192

Внимание! Раздача ведётся путём добавления новых серий; при каждом добавлении создаётся новый торрент.
Чтобы начать докачку новой серии, пользователям необходимо сделать следующее:
1. Остановить скачивание;
2. Удалить старый торрент у себя из клиента (старые серии удалять не надо);
3. Скачать новый торрент и запустить его у себя в клиенте вместо старого, при этом указать клиенту путь в старую папку куда и должно происходить скачивание новых серий. Ваш клиент при этом должен произвести хеширование (проверку) старой папки и будет докачивать только те серии, которых у вас ещё нет. Старые серии при этом не удаляются, а продолжают раздаваться! Eсли вы уже удалили старые серии, то предотвратить повторную закачку старых серий можно, отжав галочку в соответствующих местах при запуске нового торрента.

pb.wtf



Скачать Милиционер с Рублёвки через торрент https://i114.fastpic.ru/big/2021/0412/17/d229c1395b272bc0bf5ec1f702317517.jpg Скачать, смотреть онлайн Милиционер с Рублёвки бесплантно в хорошем качестве Описание: Приквел сериала «Полицейский с Рублевки». Сюжет развивается в 1994 году, когда выпускник высшей школы милиции Володя Яковлев ... 9.1 10 18
Торрент: Зарегистрирован [2021-05-02 05:06] · скачан: 52 раз
Статус: √ проверено
Размер: 5.13 GB
Как cкачать? Как скачать Милиционер с Рублёвки через торрент | UTorrent



Последний раз редактировалось: bober100 (2021-05-02 05:06), всего редактировалось 5 раз(а)

28-11-2019 20:33  

Отключить всю рекламу на сайте

12-04-2021 15:39 Милиционер с Рублёвки Скачать торрент  

Ну что там молодой до барунова по игре дотягивает?pb.wtf



12-04-2021 16:08 Милиционер с Рублёвки Скачать торрент  

Risk писал(а):

Ну что там молодой до барунова по игре дотягивает?

Вы это серьёзно? Конечно нет. Единственное до чего он дотягивает - это до звания самого бездарного актёра Туфта полная. Даже не осилил первую серию до конца.pb.wtf



    Дорогой пользователь! Огромная просьба, поблагодарите релизера, оцените раздачу и оставьте свои комментарий, если Вы скачали Милиционер с Рублёвки через торрент бесплатно!
    Комментировать посты могут только пользователи прошедшие не сложную регистрацию
    Показать сообщения:    

    Милиционер с Рублёвки через торрент
    Скачать бесплатно Милиционер с Рублёвки
    Милиционер с Рублёвки скачать торрент
    Милиционер с Рублёвки смотреть онлайн
    Cкачать фильм Милиционер с Рублёвки бесплатно
    Милиционер с Рублёвки скачать торрент в хорошем качестве
    Милиционер с Рублёвки смотреть онлайн бесплатно в хорошем качестве


    Вы не можете начинать темы
    Вы не можете отвечать на сообщения
    Вы не можете редактировать свои сообщения
    Вы не можете удалять свои сообщения
    Вы не можете голосовать в опросах
    Вы не можете прикреплять файлы к сообщениям
    Вы можете скачивать файлы