Anonymous, добрый вечер, присоединяйтесь к нам в Telegram!, здесь всегда актуальный адрес сайта, оперативная поддержка и многое другое!

>

5.5

iTunes

7.4

iTunes

7.9

iTunes

1

7.7

1 сезон

6.8

iTunes

7.3

1 сезон

13

6.7

1 сезон

8.3

RePack

30

ULTIMATE

pack

9.9

Лицензия

ВАЖНО

ИГРА 18+

pack

7.3

RePack

MK11

7.7

RePack

jed

7.8

RePack

fifa19

8.5

RePack

RDR2

RePack

NEED FOR SPEED™ PAYBACK

4 сезон

9 сезон

Бесстыжие 9 сезон

Все сериалы

все сериалы на PB.wtf

RePack

FAR CRY 5

Anonymous, добрый вечер, мы катастрофически не успеваем собрать деньги на оплату серверов, помогите нам пожалуйста 5,10,15р., для нас важна любая помощь . В качестве благодарности мы отключим Вам всю рекламу на сайте (укажите свой ник в строку Ваше имя)!

×
  
Magnet ссылка

Жуки / Сезон: 2 / Серии: 1-16 из 16 + Фильм о фильме (Константин Колесов) [2021, комедия, SATRip] pb.wtf

Жуки через торрент pb.wtf

Размер: 5.44 GB | Добавлен: 5 мес. 21 д. назад | Торрент скачан:57 раз
Смотреть онлайн Жуки | Скачать    Ребята, помогите собрать деньги на оплату серверов!!!

12-04-2021 15:09 Жуки Скачать торрент  

Жуки
Год выпуска: 2021
Страна: Россия
Жанр: комедия
Продолжительность: ~ 00:25:00 (Серия)
Перевод: Не требуется
Субтитры: отсутствуют

Режиссер: Константин Колесов



В ролях: Вячеслав Чепурченко, Вадим Дубровин, Павел Комаров (II), Елизавета Гончаренко, Владимир Епифанцев, Максим Лагашкин, Екатерина Стулова, Виктор Бычков, Игорь Верник, Анатолий Журавлёв, Карина Мишулина, Дарья Алыпова, Валерий Новиков

Описание: За этот год мир полностью изменился, а в Жуках все так же солнечно и душевно. Никита, Дэн и Артемий продолжают работать над своим приложением для знакомств TWIN под присмотром инвестора, который всё-таки добрался до Жуков в трезвом уме и теперь живёт тут, несмотря на неодобрение участкового Маслова. У Маслова, кроме инвестора, появляется ещё одна проблема: его дочь, которая внезапно приехала в Жуки и кое-что скрывает от отца. Инвестору пришлось постараться, чтобы вернуть ребят к работе: после того, как Аня бросила Никиту, он ушёл в запой и хандру, Артемий пал духом из-за мыслей о страшной мести Толика за его роман с Иркой, а Денис боится родителей доярки Дины, которую он хотел увезти в Москву. Все их мысли совсем не о карьере, но возможность продать приложение за огромные деньги заставляет их снова загореться своей идеей. Совмещая работу в деревенской школе, на почте и ферме с попытками решить классические для стартапа проблемы типа настройки серверов или поиска идей для продвижения, трио регулярно попадает в самые безумные ситуации, какие только могут случиться в российской глуши.

Качество: SATRip
Формат: AVI

Видео: XviD, ~ 1650 Кбит/с, 720x400
Аудио: MP3, 2 ch, 192 Кбит/с
скриншот  скриншот  скриншот  скриншот  

General
Complete name : Downloads\Zhuki.S02.XviD.SATRip.25Kuzmich\Zhuki.s02.e01.XviD.SATRip.25Kuzmich.avi
Format : AVI
Format/Info : Audio Video Interleave
File size : 324 MiB
Duration : 24 min 26 s
Overall bit rate : 1 851 kb/s
Writing application : VirtualDubMod 1.5.10.3 (build 2550/release)
Writing library : VirtualDubMod build 2550/release
Video #0
ID : 0
Format : MPEG-4 Visual
Format profile : Advanced Simple@L5
Format settings : BVOP1
Format settings, BVOP : 1
Format settings, QPel : No
Format settings, GMC : No warppoints
Format settings, Matrix : Default (MPEG)
Codec ID : XVID
Codec ID/Hint : XviD
Duration : 24 min 26 s
Bit rate : 1 650 kb/s
Width : 720 pixels
Height : 400 pixels
Display aspect ratio : 16:9
Frame rate : 25.000 FPS
Color space : YUV
Chroma subsampling : 4:2:0
Bit depth : 8 bits
Scan type : Progressive
Compression mode : Lossy
Bits/(Pixel*Frame) : 0.229
Stream size : 288 MiB (89%)
Writing library : XviD 73
Audio #1
ID : 1
Format : MPEG Audio
Format version : Version 1
Format profile : Layer 3
Format settings : Joint stereo / MS Stereo
Codec ID : 55
Codec ID/Hint : MP3
Duration : 24 min 26 s
Bit rate mode : Constant
Bit rate : 192 kb/s
Channel(s) : 2 channels
Sampling rate : 48.0 kHz
Frame rate : 41.667 FPS (1152 SPF)
Compression mode : Lossy
Stream size : 33.6 MiB (10%)
Alignment : Aligned on interleaves
Interleave, duration : 40 ms (1.00 video frame)
Interleave, preload duration : 504 ms
Writing library : LAME3.99r
Encoding settings : -m j -V 4 -q 2 -lowpass 18.6 -b 192

Раздача ведётся путём добавления новых серий, при каждом добавлении создаётся новый торрент. Чтобы начать докачку новой серии, пользователям необходимо сделать следующее:

- Остановить скачивание.
- Удалить старый торрент у себя из клиента (старые серии удалять не надо).
- Скачать новый торрент и запустить его у себя в клиенте вместо старого, при этом указать клиенту путь в старую папку куда и должно происходить скачивание новых серий.

Ваш клиент при этом должен произвести хеширование (проверку) старой папки (если не производит сам - помогите ему сделать это), и будет докачивать только те серии которых у вас ещё нет. Старые серии при этом не удаляются, а продолжают раздаваться!
Если вы уже удалили старые серии, то предотвратить повторную закачку старых серий можно, отжав галочку в соответствующих местах при запуске нового торрента. По возможности, желательно не удалять старые серии как можно дольше, чтобы релизер не столько продолжал раздавать старые серии, а смог сконцентрироваться на новых.
pb.wtf



Скачать Жуки через торрент https://i114.fastpic.ru/big/2021/0405/7c/edce59359b747f55e03f22fa27a49f7c.jpg Скачать, смотреть онлайн Жуки бесплантно в хорошем качестве Описание: За этот год мир полностью изменился, а в Жуках все так же солнечно и душевно. Никита, Дэн и Артемий продолжают работать над своим ... 9.7 10 20
Торрент: Зарегистрирован [2021-05-02 10:55] · скачан: 57 раз
Статус: √ проверено
Размер: 5.44 GB
Как cкачать? Как скачать Жуки через торрент | UTorrent

% Раздел Тема Автор DL S | L
TNT serials [ 8.77 GB ] Жуки / Сезон: 2 / Серии: 1-16 из 16 + Фильм о фильме [2021 WEBRip 720p] GEKADOL Скачать
7 | 3
TNT serials [ 4.95 GB ] Жуки / Сезон: 2 / Серии: 1-16 из 16 + Фильм о фильме [2021 WEBRip ] bober100 Скачать
7 | 1

28-11-2019 20:33  

Отключить всю рекламу на сайте

    Дорогой пользователь! Огромная просьба, поблагодарите релизера, оцените раздачу и оставьте свои комментарий, если Вы скачали Жуки через торрент бесплатно!
    Комментировать посты могут только пользователи прошедшие не сложную регистрацию
    Показать сообщения:    

    Жуки через торрент
    Скачать бесплатно Жуки
    Жуки скачать торрент
    Жуки смотреть онлайн
    Cкачать фильм Жуки бесплатно
    Жуки скачать торрент в хорошем качестве
    Жуки смотреть онлайн бесплатно в хорошем качестве


    Вы не можете начинать темы
    Вы не можете отвечать на сообщения
    Вы не можете редактировать свои сообщения
    Вы не можете удалять свои сообщения
    Вы не можете голосовать в опросах
    Вы не можете прикреплять файлы к сообщениям
    Вы можете скачивать файлы