Всегда рабочее зеркало без VPN и Proxy просто перед .vidak.icu напиши любое слово или цифру, Пример http://4qn1.vidak.icu

MVO

2 сезон

2 сезон

1

1 сезон

iTunes

2 сезон

13

1 сезон

Распродажа

pack

Рекомендуем

Пиратка

30

ВАЖНО

RePack

MK11

RePack

jed

RePack

fifa19

RePack

RDR2

RePack

NEED FOR SPEED™ PAYBACK

Кинопоиск HD

6 сезон

 Острые козырьки 6 сезон

Все сериалы

все сериалы на PB.wtf

RePack

FAR CRY 5

Anonymous, нам критически не хватает 5601 руб. на оплату серверов и переферии за Апрель, помоги нам пожалуйста, вся надежда только на тебя. В благодарность мы отключим тебе всю рекламу на сайте!

×
  
Magnet ссылка

Отступники / The Departed (Мартин Скорсезе) [2006 г., триллер, драма, криминал, детектив, HDTVRip - HEVC 1080p 10 bit 60 FPS , DVO, Open Matte] pb.wtf

Отступники через торрент pb.wtf

Качают: 1 [ 979 KB/s ]
Размер: 5.53 GB | Добавлен: 1 год 1 мес. назад | Торрент скачан:69 раз
Смотреть онлайн Отступники | Скачать    Ребята, помогите собрать деньги на оплату серверов!!!

12-04-2021 17:03 Отступники Скачать торрент  

The Departed
«Свой среди чужих»


Год выпуска: 2006
Страна: США
Жанр: триллер, драма, криминал

Продолжительность: 02:31:18
Перевод: Профессиональный | REN-TV
Субтитры: русские

Режиссер: Мартин Скорсезе

В ролях: Леонардо ДиКаприо, Мэтт Дэймон, Джек Николсон, Марк Уолберг, Мартин Шин, Рэй Уинстон, Вера Фармига, Алек Болдуин, Кевин Корригэн, Джеймс Бэдж Дэйл, Марк Ролстон, Роберт Уолберг, Кристен Долтон, Дж.Си. МакКензи, Энтони Андерсон, Дэвид О'Хара

Описание: Два лучших выпускника полицейской академии оказались по разные стороны баррикады: один из них – агент мафии в рядах правоохранительных органов, другой – «крот», внедрённый в мафию. Каждый считает своим долгом обнаружить и уничтожить противника, но постоянная жизнь в искажённых реалиях меняет внутренний мир героев.

Мировая премьера: 26 сентября 2006


Качество: HDTVRip 1080p by DD2D3
Формат: MKV
Видео кодек: V_MPEGH/ISO/HEVC
Аудио кодек: AC3
Видео: V_MPEGH/ISO/HEVC; 1920x1080 (16:9); 5005 Kbps; 59,940 fps; 0,040 bpp
Аудио: русский; AC3; 224 Kbps; CBR; 2 ch
Навигация по главам: есть



General
Unique ID : 184633232590877987547106623789385823923 (0x8AE7112FEDA81630AD99CB78BD7EB6B3)
Complete name : D:\The Departed (2006) [Open Matte] BDRip - HEVC 1080p 10 bit 60 FPS.mkv
Format : Matroska
Format version : Version 4
File size : 5.53 GiB
Duration : 2 h 31 min
Overall bit rate : 5 236 kb/s
Movie name : Rip by from DD2D3
Encoded date : UTC 2021-04-12 15:44:56
Writing application : mkvmerge v10.0.0 ('To Drown In You') 32bit
Writing library : libebml v1.3.4 + libmatroska v1.4.5
Attachments : poster

Video
ID : 1
Format : HEVC
Format/Info : High Efficiency Video Coding
Format profile : Main 10@L4.1@Main
Codec ID : V_MPEGH/ISO/HEVC
Duration : 2 h 31 min
Bit rate : 5 006 kb/s
Width : 1 920 pixels
Height : 1 080 pixels
Display aspect ratio : 16:9
Frame rate mode : Constant
Frame rate : 59.940 (60000/1001) FPS
Color space : YUV
Chroma subsampling : 4:2:0
Bit depth : 10 bits
Bits/(Pixel*Frame) : 0.040
Stream size : 5.29 GiB (96%)
Writing library : x265 2.3+33-0b7d54dbb71a87a0:[Windows][MSVC 1800][64 bit] 10bit: KG7x [x265.ru]
Encoding settings : cpuid=1173503 / frame-threads=2 / numa-pools=4 / wpp / no-pmode / no-pme / no-psnr / no-ssim / log-level=2 / input-csp=1 / input-res=1920x1080 / interlace=0 / total-frames=544193 / level-idc=41 / high-tier=1 / uhd-bd=0 / ref=3 / no-allow-non-conformance / no-repeat-headers / annexb / no-aud / no-hrd / info / hash=0 / no-temporal-layers / open-gop / min-keyint=25 / keyint=250 / bframes=4 / b-adapt=2 / b-pyramid / bframe-bias=0 / rc-lookahead=20 / lookahead-slices=6 / scenecut=40 / no-intra-refresh / ctu=64 / min-cu-size=8 / no-rect / no-amp / max-tu-size=32 / tu-inter-depth=1 / tu-intra-depth=1 / limit-tu=0 / rdoq-level=0 / dynamic-rd=0.00 / no-ssim-rd / signhide / no-tskip / nr-intra=0 / nr-inter=0 / no-constrained-intra / strong-intra-smoothing / max-merge=2 / limit-refs=3 / no-limit-modes / me=1 / subme=2 / merange=57 / temporal-mvp / weightp / no-weightb / no-analyze-src-pics / deblock=0:0 / sao / no-sao-non-deblock / rd=3 / no-early-skip / rskip / no-fast-intra / no-tskip-fast / no-cu-lossless / no-b-intra / rdpenalty=0 / psy-rd=2.00 / psy-rdoq=0.00 / no-rd-refine / analysis-mode=0 / no-lossless / cbqpoffs=0 / crqpoffs=0 / rc=abr / bitrate=5000 / qcomp=0.60 / qpstep=4 / stats-write=0 / stats-read=2 / cplxblur=20.0 / qblur=0.5 / ipratio=1.40 / pbratio=1.30 / aq-mode=1 / aq-strength=1.00 / cutree / zone-count=0 / no-strict-cbr / qg-size=32 / no-rc-grain / qpmax=69 / qpmin=0 / sar=1 / overscan=0 / videoformat=5 / range=0 / colorprim=2 / transfer=2 / colormatrix=2 / chromaloc=0 / display-window=0 / max-cll=0,0 / min-luma=0 / max-luma=1023 / log2-max-poc-lsb=8 / vui-timing-info / vui-hrd-info / slices=1 / opt-qp-pps / opt-ref-list-length-pps / no-multi-pass-opt-rps / scenecut-bias=0.05 / no-opt-cu-delta-qp / no-aq-motion / no-hdr / no-hdr-opt / refine-level=5 / no-limit-sao
Default : Yes
Forced : No

Audio
ID : 2
Format : AC-3
Format/Info : Audio Coding 3
Commercial name : Dolby Digital
Codec ID : A_AC3
Duration : 2 h 31 min
Bit rate mode : Constant
Bit rate : 224 kb/s
Channel(s) : 2 channels
Channel layout : L R
Sampling rate : 48.0 kHz
Frame rate : 31.250 FPS (1536 SPF)
Compression mode : Lossy
Stream size : 242 MiB (4%)
Title : DVO REN-TV
Language : Russian
Service kind : Complete Main
Default : No
Forced : No

Text
ID : 3
Format : UTF-8
Codec ID : S_TEXT/UTF8
Codec ID/Info : UTF-8 Plain Text
Duration : 2 h 23 min
Bit rate : 124 b/s
Count of elements : 1947
Stream size : 131 KiB (0%)
Title : REN_313
Language : Russian
Default : No
Forced : No

Menu
00:00:00.000 : en:Start
00:05:03.636 : en:School's Out
00:08:52.531 : en:You're No Cop
00:14:56.061 : en:Serve the Commonwealth
00:19:11.817 : en:He's Jackie's Nephew
00:24:02.274 : en:Dignam Briefs the Girls
00:26:02.060 : en:Tipped Off, Ticked Off
00:30:07.972 : en:Impervious to Analysis
00:32:22.774 : en:Necessary Torture
00:37:13.397 : en:Two Guys From Providence
00:42:46.730 : en:May I Remind You
00:47:28.178 : en:Call Your Mother
00:51:23.747 : en:How Billy Feels
00:54:50.954 : en:Hang Tight for Me
00:59:44.080 : en:Call the Game
01:03:09.786 : en:No Tickee, No Laundry
01:07:46.228 : en:Relationship Ups and Downs
01:13:04.213 : en:If You Coulda
01:14:58.160 : en:Protected and Benumbed
01:19:28.597 : en:Real Vulnerability
01:22:45.293 : en:Take Care of Business
01:27:23.738 : en:Each Other's Trail
01:30:19.247 : en:Heavy Lies the Crown
01:36:33.287 : en:The One That Gets Out
01:39:31.632 : en:Tail on Queenan
01:43:48.388 : en:Taking the Fall
01:47:45.709 : en:Wrong Number
01:51:53.039 : en:Dead Guy's Phone
01:56:54.340 : en:Nation of Rats
02:00:53.412 : en:Sheffield Shootout
02:03:06.545 : en:Getting Frank
02:06:03.556 : en:Deleted
02:10:52.845 : en:Play Me Now
02:15:19.111 : en:Rats on a Rooftop
02:18:55.994 : en:The Departed
02:23:19.090 : en:Okay
02:24:45.677 : en:End Credits


скриншот  скриншот  скриншот  скриншот  


pb.wtf



Скачать Отступники через торрент https://funkyimg.com/i/3bNU4.jpg Скачать, смотреть онлайн Отступники бесплантно в хорошем качестве Описание: Два лучших выпускника полицейской академии оказались по разные стороны баррикады: один из них – агент мафии в рядах ... 10 10 6
Info! Золотая раздача, скачанное не засчитывается.
Торрент: Зарегистрирован [2021-04-12 17:03] · скачан: 69 раз
Статус: √ проверено
Размер: 5.53 GB
Как cкачать? Как скачать Отступники через торрент | UTorrent

% Раздел Тема Автор DL S | L
Фильмы (HD 720p, 1080p) (48-60 fps) [ 6.49 GB ] Отступники / The Departed [2006 Hybrid 720p / 60 FPS ] от R.G. HD-Films slaventi-69 Скачать
1 | 1
Фильмы [HD 720p, 1080p] (Хороший звук DUB, MVO) [ 8.74 GB ] Отступники / The Departed [2006 BDRip-HEVC 1080p ] [FR Transfer] AVO [Немахов] +DUB [] bober100 Скачать
1 | 0
Фильмы 2006-2008 [ 2.05 GB ] Отступники / The Departed [2006 HDTVRip] [Open Matte] killermax2013 Скачать
1 | 0
Фильмы [HD 720p, 1080p] (Хороший звук DUB, MVO) [ 15.34 GB ] Отступники / The Departed [2006 BDRip 1080p от NNNB] DUB 2xDVO 3xAVO VO + Oroginal +Sub _denis_100 Скачать
1 | 0
Фильмы (BDRip, HDrip-AVC) (48-60 fps) [ 3.95 GB ] Отступники / The Departed [2006 BDRip-AVC 60fps Dub] от R.G. HD-Films Tiberiumsun69 Скачать
4 | 0
Фильмы с авторской озвучкой [ 2.18 GB ] Отступники / The Departed [2006 BDRip] [AVO] killermax2013 Скачать
1 | 0
Фильмы 2006-2008 [ 4.11 GB ] Отступники / The Departed [2006 Гонконг BDRip-AVC] DUB _KaisiK_ Скачать
1 | 0

28-11-2019 20:33  

Отключить всю рекламу на сайте

16-04-2021 10:57 Отступники Скачать торрент  

фильм бомбезныйpb.wtf



    Дорогой пользователь! Огромная просьба, поблагодарите релизера, оцените раздачу и оставьте свои комментарий, если Вы скачали Отступники через торрент бесплатно!
    Комментировать посты могут только пользователи прошедшие не сложную регистрацию
    Показать сообщения:    

    Отступники через торрент
    Скачать бесплатно Отступники
    Отступники скачать торрент
    Отступники смотреть онлайн
    Cкачать фильм Отступники бесплатно
    Отступники скачать торрент в хорошем качестве
    Отступники смотреть онлайн бесплатно в хорошем качестве


    Вы не можете начинать темы
    Вы не можете отвечать на сообщения
    Вы не можете редактировать свои сообщения
    Вы не можете удалять свои сообщения
    Вы не можете голосовать в опросах
    Вы не можете прикреплять файлы к сообщениям
    Вы можете скачивать файлы