Достать ножи: Стеклянная луковица

MVO

Добыча

Дубляж

Уэнсдэй

1 сезон

Тор

Дубляж

13 клиническая

1 сезон

Жестокая ночь

MVO

Одни из нас

1 сезон

Deluxe

pack

Рекомендуем

30

Пиратка

ВАЖНО

ВАЖНО

Ghostwire

Пиратка

jed

RePack

nioh2

RePack

RDR2

RePack

NEED FOR SPEED™ PAYBACK

RePack

скачать торрент

Кинопоиск HD

Острые козырьки 6 сезон

6 сезон

FAR CRY 6

RePack

скачать торрент

Лицензия

скачать торрент

MVO

1

1 сезон

скачать торрент

1 сезон

скачать торрент

Лицензия

  

Он тебя не отпустит / Every Breath You Take (Вон Стайн) [2021 г., триллер, WEB-DLRip, Дубляж "iTunes"]

Он тебя не отпустит через торрент pb.wtf

Размер: 719 MB | Добавлен: 1 год 9 мес. назад | Торрент скачан:21 раз
Смотреть онлайн | Скачать | Поддержите нас   

12-04-2021 18:26 Он тебя не отпустит Скачать торрент  

Он тебя не отпустит / Every Breath You Take
Год выпуска: 2021
Страна: США / Construction Film, 13 Films, Southpaw Entertainment (I)
Жанр: триллер
Продолжительность: 01:45:40
Перевод: Дубляж (iTunes)
Субтитры: русские форсированные – вшитые

Режиссер: Вон Стайн

rating

В ролях: Кейси Аффлек, Мишель Монахэн, Сэм Клафлин, Вероника Феррес, Индиа Айсли, Эмили Элин Линд, Хиро Канагава, Винсент Гэйл, Лилли Круг, Дэниэл Бэйкон

Описание: Филип — успешный психиатр, пробующий экспериментальные методы лечения. Когда одна из его пациенток совершает самоубийство, в его жизни появляется Джеймс — загадочный брат погибшей. И жена, и дочь Филипа очарованы таинственным незнакомцем, желающим узнать обстоятельства гибели своей сестры. Однако Филип начинает догадываться, что истинные мотивы Джеймса куда зловещее… Теперь Филипу необходимо спасти жену и дочь, попавших под чары соблазнительного психопата.

Качество: WEB-DLRip
Формат: AVI
Видео кодек: DivX
Аудио кодек: MP3
Видео: 640x272 (2.35:1), 23.976 fps, DivX Codec 4.x ~813 kbps avg, 0.20 bit/pixel
Аудио: 48 kHz, MPEG Layer 3, 2 ch, ~128.00 kbps avg




Общее
Полное имя : G:\ФИЛЬМЫ\Он тебя не отпустит.2021.D.WEB-DLRip.avi
Формат : AVI
Формат/Информация : Audio Video Interleave
Размер файла : 719 Мбайт
Продолжительность : 1 ч. 45 м.
Общий поток : 951 Кбит/сек
Программа кодирования : VirtualDubMod 1.5.10.3 | www.virtualdub-fr.org || (build 2550/release)
Библиотека кодирования : VirtualDubMod build 2550/release

Видео
Идентификатор : 0
Формат : MPEG-4 Visual
Профиль формата : Advanced [email protected]
Настройки формата : BVOP2
Параметр BVOP формата : 2
Параметр QPel формата : Нет
Параметр GMC формата : Без точки перехода
Параметр матрицы формата : Default (MPEG)
Идентификатор кодека : DIVX
Идентификатор кодека/Информация : Project Mayo
Идентификатор кодека/Подсказка : DivX 4
Продолжительность : 1 ч. 45 м.
Битрейт : 814 Кбит/сек
Ширина : 640 пикселей
Высота : 272 пикселя
Соотношение сторон : 2,35:1
Частота кадров : 23,976 (24000/1001) кадра/сек
Цветовое пространство : YUV
Субдискретизация насыщенности : 4:2:0
Битовая глубина : 8 бит
Тип развёртки : Прогрессивная
Метод сжатия : С потерями
Бит/(Пиксели*Кадры) : 0.195
Размер потока : 615 Мбайт (86%)
Библиотека кодирования : XviD 1.2.1 (UTC 2008-12-04)

Аудио
Идентификатор : 1
Формат : MPEG Audio
Версия формата : Version 1
Профиль формата : Layer 3
Настройки формата : Joint stereo / MS Stereo
Идентификатор кодека : 55
Идентификатор кодека/Подсказка : MP3
Продолжительность : 1 ч. 45 м.
Вид битрейта : Постоянный
Битрейт : 128 Кбит/сек
Каналы : 2 канала
Частота : 48,0 КГц
Частота кадров : 41,667 кадра/сек (1152 SPF)
Метод сжатия : С потерями
Размер потока : 96,7 Мбайт (13%)
Выравнивание : Соединение по промежуткам
Продолжительность промежутка : 42 мс. (1,00 видеокадр)
Время предзагрузки промежутка : 504 мс.
Библиотека кодирования : LAME3.99r
Настройки программы : -m j -V 4 -q 2 -lowpass 17 -b 128

Report created by : MediaInfoLib - v21.03
Report created on : UTC 2021-04-12 18:05:24




Скачать Он тебя не отпустит через торрент https://pic1.kartinco.top/new/img/2021-04/12/y7jgft385sm26da0g3gc9s2t7.jpg Скачать, смотреть онлайн Он тебя не отпустит бесплантно в хорошем качестве Описание: Филип — успешный психиатр, пробующий экспериментальные методы лечения. Когда одна из его пациенток совершает самоубийство, в его ... 5 10 1
Торрент: Зарегистрирован [2021-04-12 18:26] · скачан: 21 раз
Статус: √ проверено
Размер: 719 MB
Как cкачать? Как скачать Он тебя не отпустит через торрент | UTorrent

% Раздел Тема Автор DL S | L
Фильмы [HD 720p, 1080p] (Хороший звук DUB, MVO) [ 8.4 GB ] Он тебя не отпустит / Каждый твой вдох / Every Breath You Take / You Belong to Me | iTunes | 1080p bober100 Скачать
1 | 0
Фильмы 2021 [DVDrip, WEB-DLRip, HDrip] (DUB, MVO) [ 1.41 GB ] Он тебя не отпустит / You Belong to Me / Every Breath You Take | Лицензия | BDRip Twi7ter Скачать
9 | 1
Фильмы 2019-2020 [DVDrip, WEB-DLRip, HDrip] (DUB, MVO) [ 2.05 GB ] Он тебя не отпустит / Every Breath You Take / You Belong to Me | iTunes | HDRip-AVC Lithuania Скачать
1 | 0
Фильмы [HD 720p, 1080p] (Хороший звук DUB, MVO) [ 2.96 GB ] Он тебя не отпустит / Каждый твой вдох / Every Breath You Take / You Belong to Me | iTunes | 720p bober100 Скачать
1 | 0
Фильмы (Blu-ray, BD-Remux, HDDVD) [ 19.67 GB ] Он тебя не отпустит / Каждый твой вдох / Every Breath You Take / You Belong to Me | iTunes | BD Remux 1080p bober100 Скачать
1 | 0
Фильмы 2021 [DVDrip, WEB-DLRip, HDrip] (DUB, MVO) [ 1.45 GB ] Он тебя не отпустит / Каждый твой вдох / You Belong to Me / Every Breath You Take | iTunes | BDRip bober100 Скачать
1 | 0
Фильмы (WEB-DL 720p, 1080p) [ 4.67 GB ] Он тебя не отпустит / Каждый твой вдох / Every Breath You Take | iTunes | 1080p bober100 Скачать
2 | 0

28-11-2019 20:33  


Отключить вcю реклaмy на сайте, в т.ч. и в плеере онлайн просмотра!

    Дорогой пользователь! Огромная просьба, поблагодарите релизера, оцените раздачу и оставьте свои комментарий, если Вы скачали Он тебя не отпустит через торрент бесплатно!!
    Комментировать посты могут только пользователи прошедшие не сложную регистрацию
    Показать сообщения:    


    Он тебя не отпустит через торрент
    Скачать бесплатно Он тебя не отпустит
    Он тебя не отпустит скачать торрент
    Он тебя не отпустит смотреть онлайн
    Cкачать фильм Он тебя не отпустит бесплатно
    Он тебя не отпустит скачать торрент в хорошем качестве
    Он тебя не отпустит смотреть онлайн бесплатно в хорошем качестве
    Вы не можете начинать темы
    Вы не можете отвечать на сообщения
    Вы не можете редактировать свои сообщения
    Вы не можете удалять свои сообщения
    Вы не можете голосовать в опросах
    Вы не можете прикреплять файлы к сообщениям
    Вы можете скачивать файлы
    Он тебя не отпустит / Every Breath You Take [2021 г., триллер, WEB-DLRip, Дубляж "iTunes"] смотреть онлайн, скачать торрент picoco.icu