Anonymous, доброй ночи, присоединяйтесь к нам в Telegram!, здесь всегда актуальный адрес сайта, оперативная поддержка и многое другое!

>

5.6

iTunes

7.4

MVO

5.7

MVO

1

7.7

1 сезон

6.8

iTunes

7.3

1 сезон

13

6.7

1 сезон

8.3

RePack

30

ULTIMATE

pack

9.9

Лицензия

ВАЖНО

ИГРА 18+

pack

7.3

RePack

MK11

7.7

RePack

jed

7.8

RePack

fifa19

8.5

RePack

RDR2

RePack

NEED FOR SPEED™ PAYBACK

4 сезон

9 сезон

Бесстыжие 9 сезон

Все сериалы

все сериалы на PB.wtf

RePack

FAR CRY 5

Anonymous, доброй ночи, мы катастрофически не успеваем собрать деньги на оплату серверов, помогите нам пожалуйста 5,10,15р., для нас важна любая помощь . В качестве благодарности мы отключим Вам всю рекламу на сайте (укажите свой ник в строку Ваше имя)!

×
  
Magnet ссылка

Жуки / Сезон: 2 / Серии: 1-16 из 16 + Фильм о фильме (Константин Колесов) [2021, комедия, WEBRip, (Версия 18+)] pb.wtf

Жуки через торрент pb.wtf

Раздают: 4 [ 2 KB/s ]
Размер: 4.95 GB | Добавлен: 5 мес. 13 д. назад | Торрент скачан:298 раз
Смотреть онлайн Жуки | Скачать    Ребята, помогите собрать деньги на оплату серверов!!!

12-04-2021 19:31 Жуки Скачать торрент  

Жуки
Год выпуска: 2021
Страна: Россия
Жанр: комедия
Продолжительность: ~ 00:25:00 (Серия)
Перевод: Не требуется
Субтитры: отсутствуют
Версия 18+.

Режиссер: Константин Колесов



В ролях: Вячеслав Чепурченко, Вадим Дубровин, Павел Комаров (II), Елизавета Гончаренко, Владимир Епифанцев, Максим Лагашкин, Екатерина Стулова, Виктор Бычков, Игорь Верник, Анатолий Журавлёв, Карина Мишулина, Дарья Алыпова, Валерий Новиков

Описание: За этот год мир полностью изменился, а в Жуках все так же солнечно и душевно. Никита, Дэн и Артемий продолжают работать над своим приложением для знакомств TWIN под присмотром инвестора, который всё-таки добрался до Жуков в трезвом уме и теперь живёт тут, несмотря на неодобрение участкового Маслова. У Маслова, кроме инвестора, появляется ещё одна проблема: его дочь, которая внезапно приехала в Жуки и кое-что скрывает от отца. Инвестору пришлось постараться, чтобы вернуть ребят к работе: после того, как Аня бросила Никиту, он ушёл в запой и хандру, Артемий пал духом из-за мыслей о страшной мести Толика за его роман с Иркой, а Денис боится родителей доярки Дины, которую он хотел увезти в Москву. Все их мысли совсем не о карьере, но возможность продать приложение за огромные деньги заставляет их снова загореться своей идеей. Совмещая работу в деревенской школе, на почте и ферме с попытками решить классические для стартапа проблемы типа настройки серверов или поиска идей для продвижения, трио регулярно попадает в самые безумные ситуации, какие только могут случиться в российской глуши.

Качество: WEBRip
Формат: AVI

Видео: XviD, 720x400, ~ 1730 Кбит/с, 0.241 bit/pixel, 25 Кадр/с
Аудио: AC3, 48,0 КГц, 2 ch, 192 Кбит/с
скриншот  скриншот  скриншот  скриншот  

General
Complete name : H:\fiiles x\Жуки.s02.2021.WEB-DLRip.Files-x\02. Жуки.s02.2021.WEB-DLRip.Files-x.avi
Format : AVI
Format/Info : Audio Video Interleave
File size : 309 MiB
Duration : 24mn 4s
Overall bit rate : 1 796 Kbps
Writing application : VirtualDubMod 1.5.10.3 | www.virtualdub-fr.org || (build 2550/release)
Writing library : VirtualDubMod build 2550/release

Video
ID : 0
Format : MPEG-4 Visual
Format profile : Advanced Simple@L5
Format settings, BVOP : 1
Format settings, QPel : No
Format settings, GMC : No warppoints
Format settings, Matrix : Custom
Codec ID : XVID
Codec ID/Hint : XviD
Duration : 24mn 4s
Bit rate : 1 594 Kbps
Width : 720 pixels
Height : 400 pixels
Display aspect ratio : 16:9
Frame rate : 25.000 fps
Color space : YUV
Chroma subsampling : 4:2:0
Bit depth : 8 bits
Scan type : Progressive
Compression mode : Lossy
Bits/(Pixel*Frame) : 0.221
Stream size : 275 MiB (89%)
Writing library : XviD 73

Audio
ID : 1
Format : AC-3
Format/Info : Audio Coding 3
Mode extension : CM (complete main)
Codec ID : 2000
Duration : 24mn 4s
Bit rate mode : Constant
Bit rate : 192 Kbps
Channel(s) : 2 channels
Channel positions : Front: L R
Sampling rate : 48.0 KHz
Bit depth : 16 bits
Compression mode : Lossy
Stream size : 33.1 MiB (11%)
Alignment : Split accross interleaves
Interleave, duration : 40 ms (1.00 video frame)
Interleave, preload duration : 500 ms

Раздача ведётся путём добавления новых серий, при каждом добавлении создаётся новый торрент. Чтобы начать докачку новой серии, пользователям необходимо сделать следующее:

- Остановить скачивание.
- Удалить старый торрент у себя из клиента (старые серии удалять не надо).
- Скачать новый торрент и запустить его у себя в клиенте вместо старого, при этом указать клиенту путь в старую папку куда и должно происходить скачивание новых серий.

Ваш клиент при этом должен произвести хеширование (проверку) старой папки (если не производит сам - помогите ему сделать это), и будет докачивать только те серии которых у вас ещё нет. Старые серии при этом не удаляются, а продолжают раздаваться!
Если вы уже удалили старые серии, то предотвратить повторную закачку старых серий можно, отжав галочку в соответствующих местах при запуске нового торрента. По возможности, желательно не удалять старые серии как можно дольше, чтобы релизер не столько продолжал раздавать старые серии, а смог сконцентрироваться на новых.
pb.wtf



Скачать Жуки через торрент https://img10.lostpic.net/2021/04/05/8ba53eb0cd8c3469d0431a2cebcda721.jpg Скачать, смотреть онлайн Жуки бесплантно в хорошем качестве Описание: За этот год мир полностью изменился, а в Жуках все так же солнечно и душевно. Никита, Дэн и Артемий продолжают работать над своим ... 9.6 10 21
Торрент: Зарегистрирован [2021-05-02 10:59] · скачан: 298 раз
Статус: √ проверено
Размер: 4.95 GB
Как cкачать? Как скачать Жуки через торрент | UTorrent

% Раздел Тема Автор DL S | L
TNT serials [ 8.77 GB ] Жуки / Сезон: 2 / Серии: 1-16 из 16 + Фильм о фильме [2021 WEBRip 720p] GEKADOL Скачать
5 | 5
TNT serials [ 5.44 GB ] Жуки / Сезон: 2 / Серии: 1-16 из 16 + Фильм о фильме [2021 SATRip] bober100 Скачать
1 | 0


Последний раз редактировалось: bober100 (2021-05-02 10:59), всего редактировалось 1 раз

28-11-2019 20:33  

Отключить всю рекламу на сайте

30-04-2021 09:57 Жуки Скачать торрент  

Будет ли весь сезон без цензуры?pb.wtf



    Дорогой пользователь! Огромная просьба, поблагодарите релизера, оцените раздачу и оставьте свои комментарий, если Вы скачали Жуки через торрент бесплатно!
    Комментировать посты могут только пользователи прошедшие не сложную регистрацию
    Показать сообщения:    

    Жуки через торрент
    Скачать бесплатно Жуки
    Жуки скачать торрент
    Жуки смотреть онлайн
    Cкачать фильм Жуки бесплатно
    Жуки скачать торрент в хорошем качестве
    Жуки смотреть онлайн бесплатно в хорошем качестве


    Вы не можете начинать темы
    Вы не можете отвечать на сообщения
    Вы не можете редактировать свои сообщения
    Вы не можете удалять свои сообщения
    Вы не можете голосовать в опросах
    Вы не можете прикреплять файлы к сообщениям
    Вы можете скачивать файлы