Всегда рабочее зеркало без VPN и Proxy просто перед .vidak.icu напиши любое слово или цифру, Пример http://felv.vidak.icu

MVO

2 сезон

2 сезон

1

1 сезон

iTunes

2 сезон

13

1 сезон

Распродажа

pack

Рекомендуем

Пиратка

30

ВАЖНО

RePack

MK11

RePack

jed

RePack

fifa19

RePack

RDR2

RePack

NEED FOR SPEED™ PAYBACK

Кинопоиск HD

6 сезон

 Острые козырьки 6 сезон

Все сериалы

все сериалы на PB.wtf

RePack

FAR CRY 5

Anonymous, нам критически не хватает 5601 руб. на оплату серверов и переферии за Апрель, помоги нам пожалуйста, вся надежда только на тебя. В благодарность мы отключим тебе всю рекламу на сайте!

×
  
Magnet ссылка

Проклятие: Обитель смерти / Malevolent (Олаф де Флёр Йоханнессон) [2018 г., ужасы, WEB-DLRip, Дубляж "iTunes"] pb.wtf

Проклятие: Обитель смерти через торрент pb.wtf

Размер: 713 MB | Добавлен: 1 год 1 мес. назад | Торрент скачан:57 раз
Смотреть онлайн Проклятие: Обитель смерти | Скачать    Ребята, помогите собрать деньги на оплату серверов!!!

13-04-2021 18:25 Проклятие: Обитель смерти Скачать торрент  

Проклятие: Обитель смерти / Malevolent
Год выпуска: 2018
Страна: Великобритания / Catalyst Global Media, Sigma Films, Thruline Entertainment
Жанр: ужасы
Продолжительность: 01:28:44
Перевод: Дубляж (iTunes)
«Мертвые не будут молчать»

Режиссер: Олаф де Флёр Йоханнессон

rating

В ролях: Флоренс Пью, Бен Ллойд-Хьюз, Скотт Чэмберс, Джорджина Беван, Стивен МакКоул, Дэйзи Мэтьюсон, Шарлотта Аллен, Николя Грайр, Селия Имри, Шелли Конн

Описание: Псевдо-экстрасенсы Джексон и Анджела зарабатывают на жизнь тем, что обманывают людей, избавляя их от привидений, в которых они сами не верят. Но в детском приюте, населенном призраками, им предстоит столкнуться с реальным ужасом.

Качество: WEB-DLRip
Формат: AVI
Видео кодек: DivX
Аудио кодек: MP3
Видео: 640x272 (2.35:1), 24.000 fps, DivX Codec 4.x ~986 kbps avg, 0.24 bit/pixel
Аудио: 48 kHz, MPEG Layer 3, 2 ch, ~128.00 kbps avg








Общее
Полное имя : G:\ФИЛЬМЫ\Проклятие. Обитель смерти.2018.D.WEB-DLRip.(AMAZON).avi
Формат : AVI
Формат/Информация : Audio Video Interleave
Размер файла : 713 Мбайт
Продолжительность : 1 ч. 28 м.
Общий поток : 1 123 Кбит/сек
Программа кодирования : VirtualDubMod 1.5.10.3 | www.virtualdub-fr.org || (build 2550/release)
Библиотека кодирования : VirtualDubMod build 2550/release

Видео
Идентификатор : 0
Формат : MPEG-4 Visual
Профиль формата : Advanced Simple@L5
Настройки формата : BVOP2
Параметр BVOP формата : 2
Параметр QPel формата : Нет
Параметр GMC формата : Без точки перехода
Параметр матрицы формата : Default (MPEG)
Идентификатор кодека : DIVX
Идентификатор кодека/Информация : Project Mayo
Идентификатор кодека/Подсказка : DivX 4
Продолжительность : 1 ч. 28 м.
Битрейт : 986 Кбит/сек
Ширина : 640 пикселей
Высота : 272 пикселя
Соотношение сторон : 2,35:1
Частота кадров : 24,000 кадра/сек
Цветовое пространство : YUV
Субдискретизация насыщенности : 4:2:0
Битовая глубина : 8 бит
Тип развёртки : Прогрессивная
Метод сжатия : С потерями
Бит/(Пиксели*Кадры) : 0.236
Размер потока : 626 Мбайт (88%)
Библиотека кодирования : XviD 1.2.1 (UTC 2008-12-04)

Аудио
Идентификатор : 1
Формат : MPEG Audio
Версия формата : Version 1
Профиль формата : Layer 3
Настройки формата : Joint stereo / MS Stereo
Идентификатор кодека : 55
Идентификатор кодека/Подсказка : MP3
Продолжительность : 1 ч. 28 м.
Вид битрейта : Постоянный
Битрейт : 128 Кбит/сек
Каналы : 2 канала
Частота : 48,0 КГц
Частота кадров : 41,667 кадра/сек (1152 SPF)
Метод сжатия : С потерями
Размер потока : 80,8 Мбайт (11%)
Выравнивание : Соединение по промежуткам
Продолжительность промежутка : 42 мс. (1,00 видеокадр)
Время предзагрузки промежутка : 504 мс.
Библиотека кодирования : LAME3.99r
Настройки программы : -m j -V 4 -q 2 -lowpass 17 -b 128

Report created by : MediaInfoLib - v21.03
Report created on : UTC 2021-04-13 18:02:32

pb.wtf



Скачать Проклятие: Обитель смерти через торрент https://pic1.kartinco.top/new/img/2021-04/13/ksg9kwr73kjzj1fdcsuhsr05d.jpg Скачать, смотреть онлайн Проклятие: Обитель смерти бесплантно в хорошем качестве Описание: Псевдо-экстрасенсы Джексон и Анджела зарабатывают на жизнь тем, что обманывают людей, избавляя их от привидений, в которых они ... 8.5 10 6
Торрент: Зарегистрирован [2021-04-13 18:25] · скачан: 57 раз
Статус: √ проверено
Размер: 713 MB
Как cкачать? Как скачать Проклятие: Обитель смерти через торрент | UTorrent

% Раздел Тема Автор DL S | L
Фильмы 2018 [DVDrip, WEB-DLRip, HDrip] (DUB, MVO) [ 2.05 GB ] Проклятие: Обитель смерти / Malevolent [2018 WEB-DLRip-AVC] от MediaBit Lithuania Скачать
1 | 0
Фильмы (WEB-DL 720p, 1080p) [ 2.67 GB ] Проклятие: Обитель смерти / Malevolent [2018 WEB-DL 1080p] DUB [ ] bober100 Скачать
2 | 0

28-11-2019 20:33  

Отключить всю рекламу на сайте

    Дорогой пользователь! Огромная просьба, поблагодарите релизера, оцените раздачу и оставьте свои комментарий, если Вы скачали Проклятие: Обитель смерти через торрент бесплатно!
    Комментировать посты могут только пользователи прошедшие не сложную регистрацию
    Показать сообщения:    

    Проклятие: Обитель смерти через торрент
    Скачать бесплатно Проклятие: Обитель смерти
    Проклятие: Обитель смерти скачать торрент
    Проклятие: Обитель смерти смотреть онлайн
    Cкачать фильм Проклятие: Обитель смерти бесплатно
    Проклятие: Обитель смерти скачать торрент в хорошем качестве
    Проклятие: Обитель смерти смотреть онлайн бесплатно в хорошем качестве


    Вы не можете начинать темы
    Вы не можете отвечать на сообщения
    Вы не можете редактировать свои сообщения
    Вы не можете удалять свои сообщения
    Вы не можете голосовать в опросах
    Вы не можете прикреплять файлы к сообщениям
    Вы можете скачивать файлы