Присоединяйтесь к нам в Telegram!, здесь всегда актуальный адрес сайта, оперативная поддержка и многое другое!!

>

5.9

iTunes

7.4

iTunes

9.4

1 сезон

1

7.4

2 сезон

7.2

iTunes

7.3

1 сезон

13

6.1

iTunes

8.3

GOG

30

ULTIMATE

pack

9.9

Лицензия

ВАЖНО

ИГРА 18+

pack

7.3

RePack

MK11

7.7

RePack

jed

7.8

RePack

fifa19

8.5

RePack

RDR2

RePack

NEED FOR SPEED™ PAYBACK

5 сезон

9 сезон

Бесстыжие 9 сезон

Все сериалы

все сериалы на PB.wtf

RePack

FAR CRY 5

Anonymous, доброй ночи, мы катастрофически не успеваем собрать деньги на оплату серверов, помогите нам пожалуйста 5,10,15р., для нас важна любая помощь . В качестве благодарности мы отключим Вам всю рекламу на сайте (укажите свой ник в строку Ваше имя)!

×
  
Magnet ссылка

Иуда и чёрный мессия / Judas and the Black Messiah (Шака Кинг) [2021, Биография, драма, история, криминал, WEB-DLRip-AVC] DUB [iTunes] от MediaBit pb.wtf

Иуда и чёрный мессия через торрент pb.wtf

Размер: 1.45 GB | Добавлен: 7 мес. назад | Торрент скачан:143 раза
Смотреть онлайн Иуда и чёрный мессия | Скачать    Ребята, помогите собрать деньги на оплату серверов!!!

15-04-2021 16:57 Иуда и чёрный мессия Скачать торрент  


Иуда и чёрный мессия / Judas and the Black Messiah
Информация о фильме:
Название: Иуда и чёрный мессия
Оригинальное название: Judas and the Black Messiah
Год выхода: 2021
Жанр: Биография, драма, история, криминал
Режиссер: Шака Кинг

В ролях: Лакит Стэнфилд, Джесси Племонс, Дэниэл Калуя, Лил Рел Ховери, Эштон Сандерс, Элджи Смит, Жермен Фаулер, Доминик Фишбэк, Алисия Джой Пауэлл

Описание: Чикаго, 1968 год. Попавшись на угоне машины с поддельным удостоверением ФБР, преступник Уильям О’Нил соглашается на сделку с федералами. Он внедряется в отделение радикальной организации «Чёрные пантеры» и втирается в доверие к её лидеру Фреду Хэмптону, как раз когда тот начинает объединять местные этнические организации в «Радужную коалицию».



Страна: США
Студия: Bron Creative, Bron Studios, MACRO, Participant Media, Proximity
Продолжительность: 02:05:25
Перевод: Дублированный - iTunes



Информация о файле:
Кодек: AVC
Формат: MKV
Качество: WEB-DLRip-AVC
Видео: MPEG-4 AVC, 1024x428, 23.976 fps, 1560 kbps
Аудио RU: AAC-HE, 2 ch, 48 kHz, 96 kbps
Субтитры: Русские (Forced, 2 x full), английские
Навигация по главам: Да

x264 info: frame I:1135 Avg QP:11.34 size: 60384
x264 info: frame P:38600 Avg QP:14.43 size: 19677
x264 info: frame B:140697 Avg QP:17.57 size: 4538
x264 info: consecutive B-frames: 1.8% 2.7% 6.5% 29.8% 14.9% 17.2% 5.9% 18.2% 1.3% 1.6%
General
Unique ID : 107471828241998947959614861162636727021 (0x50DA523B6762781B1869C763E8A152ED)
Complete name : D:uTorrentРипы_от_wolf1245_MediaBitJudas and the Black Messiah.2021.DUB.WEB-DLRip-AVC.[wolf1245.MediaBit].mkv
Format : Matroska
Format version : Version 4
File size : 1.45 GiB
Duration : 2 h 5 min
Overall bit rate : 1 657 kb/s
Movie name : Judas and the Black Messiah.2021.DUB.WEB-DLRip-AVC.[wolf1245.MediaBit]
Encoded date : UTC 2021-04-15 16:44:48
Writing application : mkvmerge v56.1.0 ('My Friend') 64-bit
Writing library : libebml v1.4.2 + libmatroska v1.6.4
Video
ID : 1
Format : AVC
Format/Info : Advanced Video Codec
Format profile : High@L4.1
Format settings : CABAC / 12 Ref Frames
Format settings, CABAC : Yes
Format settings, Reference frames : 12 frames
Codec ID : V_MPEG4/ISO/AVC
Duration : 2 h 5 min
Bit rate : 1 560 kb/s
Width : 1 024 pixels
Height : 428 pixels
Display aspect ratio : 2.40:1
Frame rate mode : Constant
Frame rate : 23.976 (24000/1001) FPS
Color space : YUV
Chroma subsampling : 4:2:0
Bit depth : 8 bits
Scan type : Progressive
Bits/(Pixel*Frame) : 0.148
Stream size : 1.37 GiB (94%)
Title : [wolf1245.MediaBit]
Writing library : x264 core 157 r2958 57baac4
Encoding settings : cabac=1 / ref=12 / deblock=1:0:0 / analyse=0x3:0x133 / me=umh / subme=10 / psy=1 / psy_rd=1.00:0.00 / mixed_ref=1 / me_range=32 / chroma_me=1 / trellis=2 / 8x8dct=1 / cqm=0 / deadzone=21,11 / fast_pskip=1 / chroma_qp_offset=-2 / threads=10 / lookahead_threads=1 / sliced_threads=0 / nr=0 / decimate=1 / interlaced=0 / bluray_compat=0 / constrained_intra=0 / bframes=9 / b_pyramid=2 / b_adapt=2 / b_bias=0 / direct=3 / weightb=1 / open_gop=0 / weightp=2 / keyint=240 / keyint_min=24 / scenecut=40 / intra_refresh=0 / rc_lookahead=60 / rc=2pass / mbtree=1 / bitrate=1560 / ratetol=1.0 / qcomp=0.60 / qpmin=0 / qpmax=69 / qpstep=4 / cplxblur=20.0 / qblur=0.5 / vbv_maxrate=50000 / vbv_bufsize=62500 / nal_hrd=none / filler=0 / ip_ratio=1.40 / aq=1:0.80
Language : English
Default : Yes
Forced : No
Color range : Limited
Color primaries : BT.709
Transfer characteristics : BT.709
Matrix coefficients : BT.709
Audio
ID : 2
Format : AAC LC SBR
Format/Info : Advanced Audio Codec Low Complexity with Spectral Band Replication
Commercial name : HE-AAC
Format settings : Implicit
Codec ID : A_AAC-2
Duration : 2 h 5 min
Bit rate : 96.0 kb/s
Channel(s) : 2 channels
Channel layout : L R
Sampling rate : 48.0 kHz
Frame rate : 23.438 FPS (2048 SPF)
Compression mode : Lossy
Stream size : 86.1 MiB (6%)
Title : DUB [iTunes]
Language : Russian
Default : Yes
Forced : No
Text #1
ID : 3
Format : UTF-8
Codec ID : S_TEXT/UTF8
Codec ID/Info : UTF-8 Plain Text
Duration : 1 h 59 min
Bit rate : 7 b/s
Count of elements : 107
Stream size : 6.92 KiB (0%)
Title : Forced
Language : Russian
Default : Yes
Forced : Yes
Text #2
ID : 4
Format : UTF-8
Codec ID : S_TEXT/UTF8
Codec ID/Info : UTF-8 Plain Text
Duration : 2 h 4 min
Bit rate : 99 b/s
Count of elements : 1789
Stream size : 90.9 KiB (0%)
Title : Full
Language : Russian
Default : No
Forced : No
Text #3
ID : 5
Format : UTF-8
Codec ID : S_TEXT/UTF8
Codec ID/Info : UTF-8 Plain Text
Duration : 1 h 59 min
Bit rate : 113 b/s
Count of elements : 1827
Stream size : 99.4 KiB (0%)
Title : Full [FOCS]
Language : Russian
Default : No
Forced : No
Text #4
ID : 6
Format : UTF-8
Codec ID : S_TEXT/UTF8
Codec ID/Info : UTF-8 Plain Text
Duration : 2 h 3 min
Bit rate : 69 b/s
Count of elements : 1846
Stream size : 62.6 KiB (0%)
Title : Full
Language : English
Default : No
Forced : No
Text #5
ID : 7
Format : UTF-8
Codec ID : S_TEXT/UTF8
Codec ID/Info : UTF-8 Plain Text
Duration : 2 h 3 min
Bit rate : 78 b/s
Count of elements : 2102
Stream size : 70.6 KiB (0%)
Title : SDH
Language : English
Default : No
Forced : No
Релиз от: &
Автор релиза:
pb.wtf



Скачать Иуда и чёрный мессия через торрент https://i114.fastpic.ru/big/2021/0415/c3/323dee955c0aff21713ed306c9543dc3.jpg Скачать, смотреть онлайн Иуда и чёрный мессия бесплантно в хорошем качестве Описание: Чикаго, 1968 год. Попавшись на угоне машины с поддельным удостоверением ФБР, преступник Уильям О’Нил соглашается на сделку с ... 10 10 4
Торрент: Зарегистрирован [2021-04-15 16:57] · скачан: 143 раз
Статус: √ проверено
Размер: 1.45 GB
Как cкачать? Как скачать Иуда и чёрный мессия через торрент | UTorrent

28-11-2019 20:33  

Отключить всю рекламу на сайте

    Дорогой пользователь! Огромная просьба, поблагодарите релизера, оцените раздачу и оставьте свои комментарий, если Вы скачали Иуда и чёрный мессия через торрент бесплатно!
    Комментировать посты могут только пользователи прошедшие не сложную регистрацию
    Показать сообщения:    

    Иуда и чёрный мессия через торрент
    Скачать бесплатно Иуда и чёрный мессия
    Иуда и чёрный мессия скачать торрент
    Иуда и чёрный мессия смотреть онлайн
    Cкачать фильм Иуда и чёрный мессия бесплатно
    Иуда и чёрный мессия скачать торрент в хорошем качестве
    Иуда и чёрный мессия смотреть онлайн бесплатно в хорошем качестве


    Вы не можете начинать темы
    Вы не можете отвечать на сообщения
    Вы не можете редактировать свои сообщения
    Вы не можете удалять свои сообщения
    Вы не можете голосовать в опросах
    Вы не можете прикреплять файлы к сообщениям
    Вы можете скачивать файлы