1 сезон

3 сезон

iTunes

1

iTunes

DUB Netflix

iTunes

13

1 сезон

RePack

30

Deluxe

pack

Легкие деньги

ВАЖНО

ИГРА 18+

pack

RePack

MK11

RePack

jed

RePack

fifa19

RePack

RDR2

RePack

NEED FOR SPEED™ PAYBACK

4 сезон

9 сезон

Бесстыжие 9 сезон

Все сериалы

все сериалы на PB.wtf

RePack

FAR CRY 5

Anonymous, добрый день, мы не успеваем до 1 числа собрать деньги на оплату серверов, помогите нам пожалуйста в это трудное время. В качестве благодарности мы отключим Вам всю рекламу на сайте (укажите свой ник в строку Ваше имя)!

×
  
Magnet ссылка

Игры шпионов / The Courier (Доминик Кук) [2020, триллер, WEB-DL 1080p] [DVO] (Pazl Voice) pb.wtf

Игры шпионов через торрент pb.wtf

Раздают: 6 [ 0.4 KB/s ]
Размер: 5.9 GB | Добавлен: 2 мес. 1 д. назад | Торрент скачан:267 раз
Скачать  

17-04-2021 18:24 Игры шпионов Скачать торрент  

Игры шпионов / The Courier
Год выхода: 2020
Страна: Великобритания, США
Жанр: триллер
Продолжительность: 01:52:00
Перевод: Любительский (двухголосый закадровый) Pazl Voice
Субтитры: Английские (hardsub на русскую речь), английские (forced, full, SDH)
Режиссер: Доминик Кук / Dominic Cooke
В ролях:
Бенедикт Камбербэтч, Мераб Нинидзе, Рэйчел Броснахэн, Джесси Бакли, Энгус Райт, Джозеф Балдеррама, Кирилл Пирогов, Владимир Чуприков, Мария Миронова, Фред Хейг, Эмма Пензина, Антон Лессер, Петр Климеш, Элис Орр-Юинг, Оливер Джонстон, Джонатан Харден, Ричард Глейвз, Ондржей Малый
О фильме:
Во время Холодной войны Олег Пеньковский, полковник ГРУ генштаба Минобороны, выходит на связь с Гревиллом Винном, британским бизнесменом и шпионом, заинтересованном в постоянном контакте с Москвой. Разведчики договариваются о сотрудничестве, не представляя, чем оно закончится для каждого.

rating
-Sample-

Качество: WEB-DL 1080p
Формат: MKV
Видео: AVC, 1920x1080 (16:9), 23.976 fps, 7 000 kb/s
Аудио: 48 kHz, AC3 Dolby Digital, 3/2 (L,C,R,l,r) + LFE ch, ~384.00 kbps avg - Thx KinoPub ;-) / Работа со звуком mrrvg

Аудио: 48 kHz, E-AC3 Dolby Digital, 3/2 (L,C,R,l,r) + LFE ch, ~256.00 kbps avg - | ENG
General
Unique ID : 213770815095681761630634216729136415306 (0xA0D2C2EB4CA60E128D93B3F31D81424A)
Complete name : The.Courier.(2020).WEB-DL.1080p.mkv
Format : Matroska
Format version : Version 4
File size : 5.90 GiB
Duration : 1 h 52 min
Overall bit rate mode : Variable
Overall bit rate : 7 544 kb/s
Encoded date : UTC 2021-04-17 16:21:20
Writing application : mkvmerge v8.3.0 ('Over the Horizon') 64bit
Writing library : libebml v1.3.1 + libmatroska v1.4.2

Video
ID : 1
Format : AVC
Format/Info : Advanced Video Codec
Format profile : Main@L4.1
Format settings : CABAC / 4 Ref Frames
Format settings, CABAC : Yes
Format settings, ReFrames : 4 frames
Codec ID : V_MPEG4/ISO/AVC
Duration : 1 h 52 min
Bit rate mode : Variable
Bit rate : 7 000 kb/s
Maximum bit rate : 14.0 Mb/s
Width : 1 920 pixels
Height : 1 080 pixels
Display aspect ratio : 16:9
Frame rate mode : Constant
Frame rate : 23.976 (24000/1001) FPS
Color space : YUV
Chroma subsampling : 4:2:0
Bit depth : 8 bits
Scan type : Progressive
Bits/(Pixel*Frame) : 0.141
Stream size : 5.40 GiB (91%)
Writing library : x264 core 148 r2 7599210
Encoding settings : cabac=1 / ref=4 / deblock=1:-1:-1 / analyse=0x1:0x111 / me=umh / subme=9 / psy=1 / psy_rd=1.00:0.15 / mixed_ref=1 / me_range=32 / chroma_me=1 / trellis=1 / 8x8dct=0 / cqm=0 / deadzone=21,11 / fast_pskip=1 / chroma_qp_offset=-3 / threads=12 / lookahead_threads=1 / sliced_threads=0 / nr=0 / decimate=1 / interlaced=0 / bluray_compat=0 / constrained_intra=0 / bframes=3 / b_pyramid=2 / b_adapt=2 / b_bias=0 / direct=3 / weightb=1 / open_gop=0 / weightp=2 / keyint=48 / keyint_min=24 / scenecut=0 / intra_refresh=0 / rc_lookahead=48 / rc=abr / mbtree=1 / bitrate=7000 / ratetol=1.0 / qcomp=0.60 / qpmin=0 / qpmax=69 / qpstep=4 / vbv_maxrate=14000 / vbv_bufsize=7000 / nal_hrd=vbr / filler=0 / ip_ratio=1.40 / aq=1:1.00
Default : Yes
Forced : No
Color range : Limited
Color primaries : BT.709
Transfer characteristics : BT.709
Matrix coefficients : BT.709

Audio #1
ID : 2
Format : AC-3
Format/Info : Audio Coding 3
Commercial name : Dolby Digital
Codec ID : A_AC3
Duration : 1 h 52 min
Bit rate mode : Constant
Bit rate : 384 kb/s
Channel(s) : 6 channels
Channel layout : L R C LFE Ls Rs
Sampling rate : 48.0 kHz
Frame rate : 31.250 FPS (1536 SPF)
Bit depth : 16 bits
Compression mode : Lossy
Stream size : 308 MiB (5%)
Title : DVO (Pazl Voice)
Language : Russian
Service kind : Complete Main
Default : Yes
Forced : No

Audio #2
ID : 3
Format : E-AC-3
Format/Info : Enhanced AC-3
Commercial name : Dolby Digital Plus
Codec ID : A_EAC3
Duration : 1 h 52 min
Bit rate mode : Constant
Bit rate : 256 kb/s
Channel(s) : 6 channels
Channel layout : L R C LFE Ls Rs
Sampling rate : 48.0 kHz
Frame rate : 31.250 FPS (1536 SPF)
Compression mode : Lossy
Stream size : 205 MiB (3%)
Language : English
Service kind : Complete Main
Default : No
Forced : No

Text #1
ID : 4
Format : UTF-8
Codec ID : S_TEXT/UTF8
Codec ID/Info : UTF-8 Plain Text
Duration : 1 h 16 min
Bit rate : 6 b/s
Count of elements : 129
Stream size : 3.56 KiB (0%)
Title : Forced
Language : English
Default : No
Forced : No

Text #2
ID : 5
Format : UTF-8
Codec ID : S_TEXT/UTF8
Codec ID/Info : UTF-8 Plain Text
Duration : 1 h 43 min
Bit rate : 52 b/s
Count of elements : 1247
Stream size : 39.7 KiB (0%)
Title : Full
Language : English
Default : No
Forced : No

Text #3
ID : 6
Format : UTF-8
Codec ID : S_TEXT/UTF8
Codec ID/Info : UTF-8 Plain Text
Duration : 1 h 43 min
Bit rate : 59 b/s
Count of elements : 1351
Stream size : 44.8 KiB (0%)
Title : SDH
Language : English
Default : No
Forced : No

скриншот  скриншот  скриншот  
pb.wtf



Скачать Игры шпионов через торрент https://d.radikal.ru/d42/2104/a8/656de60c7c33.jpg Скачать фильм Игры шпионов через торрент бесплантно в хорошем качестве О фильме:Во время Холодной войны Олег Пеньковский, полковник ГРУ генштаба Минобороны, выходит на связь с Гревиллом Винном, британским ... 8.6 10 8
Торрент: Зарегистрирован [2021-04-17 18:24] · скачан: 267 раз
Статус: T временная
Размер: 5.9 GB
Как cкачать? Как скачать Игры шпионов через торрент | UTorrent

% Раздел Тема Автор DL S | L
Фильмы 2019-2020 [DVDrip, WEB-DLRip, HDrip] (DUB, MVO) [ 2.18 GB ] Игры шпионов / The Courier [2020 BDRip] +MVO [HDRezka Studio] bober100 Скачать
15 | 0
Фильмы 2019-2020 [DVDrip, WEB-DLRip, HDrip] (DUB, MVO) [ 1.4 GB ] Игры шпионов / The Courier [2020 BDRip] bober100 Скачать
17 | 0
Фильмы (Blu-ray, BD-Remux, HDDVD) [ 30.41 GB ] Игры шпионов / The Courier [2020 BD Remux 1080p] +MVO [HDRezka Studio] bober100 Скачать
1 | 0
Фильмы [HD 720p, 1080p] (Хороший звук DUB, MVO) [ 10.49 GB ] Игры шпионов / The Courier [2020 BDRip 1080p] +MVO [HDRezka Studio] bober100 Скачать
21 | 0
Фильмы 2019-2020 [DVDrip, WEB-DLRip, HDrip] (DUB, MVO) [ 1.45 GB ] Игры шпионов / The Courier [2020 BDRip] MVO [HDRezka Studio] bober100 Скачать
8 | 0
Ultra HD (UHD: 2K, 4K, 8K) — видео сверхвысокой чёткости [ 12.14 GB ] Игры шпионов / The Courier [2020 UHD WEB-DL 2160p] MVO [HDRezka Studio] bober100 Скачать
3 | 0
Фильмы [HD 720p, 1080p] (Хороший звук DUB, MVO) [ 4.33 GB ] Игры шпионов / The Courier [2020 BDRip 720p] +MVO [HDRezka Studio] bober100 Скачать
15 | 1

28-11-2019 20:33  

Отключить всю рекламу на сайте

11-06-2021 18:40 Игры шпионов Скачать торрент  

Топик был перенесен из форума Фильмы (WEB-DL 720p, 1080p) в форум Для поглощённых раздач

Причина переноса: Игры шпионов / The Courier
bober100pb.wtf



    Дорогой пользователь! Огромная просьба, поблагодарите релизера, оцените раздачу и оставьте свои комментарий, если Вы скачали Игры шпионов через торрент бесплатно! Внесите свою лепту в развитие PiratBit!
    Комментировать посты могут только пользователи прошедшие не сложную регистрацию
    Показать сообщения:    

    Игры шпионов через торрент
    Скачать бесплатно Игры шпионов
    Игры шпионов скачать торрент
    Игры шпионов смотреть онлайн
    Cкачать фильм Игры шпионов бесплатно
    Игры шпионов скачать торрент в хорошем качестве
    Игры шпионов смотреть онлайн бесплатно в хорошем качестве


    Вы не можете начинать темы
    Вы не можете отвечать на сообщения
    Вы не можете редактировать свои сообщения
    Вы не можете удалять свои сообщения
    Вы не можете голосовать в опросах
    Вы не можете прикреплять файлы к сообщениям
    Вы можете скачивать файлы