Присоединяйтесь к нам в Telegram!, здесь всегда актуальный адрес сайта, оперативная поддержка и многое другое!!

>

5.9

iTunes

7.4

iTunes

9.4

1 сезон

1

7.4

2 сезон

7.2

iTunes

7.3

1 сезон

13

6.1

iTunes

8.3

GOG

30

ULTIMATE

pack

9.9

Лицензия

ВАЖНО

ИГРА 18+

pack

7.3

RePack

MK11

7.7

RePack

jed

7.8

RePack

fifa19

8.5

RePack

RDR2

RePack

NEED FOR SPEED™ PAYBACK

5 сезон

9 сезон

Бесстыжие 9 сезон

Все сериалы

все сериалы на PB.wtf

RePack

FAR CRY 5

Anonymous, добрый вечер, мы катастрофически не успеваем собрать деньги на оплату серверов, помогите нам пожалуйста 5,10,15р., для нас важна любая помощь . В качестве благодарности мы отключим Вам всю рекламу на сайте (укажите свой ник в строку Ваше имя)!

×
  
Magnet ссылка

Заступник / The Marksman (Роберт Лоренц) [2021, Боевик, криминал, триллер, WEB-DLRip-AVC] MVO [HDRezka Studio] от MediaBit pb.wtf

Заступник через торрент pb.wtf

Раздают: 2 [ 0 KB/s ]
Размер: 2.05 GB | Добавлен: 7 мес. назад | Торрент скачан:151 раз
Смотреть онлайн Заступник | Скачать    Ребята, помогите собрать деньги на оплату серверов!!!

18-04-2021 07:49 Заступник Скачать торрент  


Заступник / The Marksman
Информация о фильме:
Название: Заступник
Оригинальное название: The Marksman
Год выхода: 2021
Жанр: Боевик, криминал, триллер
Режиссер: Роберт Лоренц
В ролях: Лиам Нисон, Кэтрин Уинник, Тереса Руис, Хуан Пабло Раба, Грэйсон Берри, Лелия Симингтон, Люче Рэйнс, Дилан Кенин, Чейз Маллинз, Томми Лафит, Шон А. Розалес, Хосе Л. Васкес, Антонио Лейба, Алекс Найт, Дэвид ДеЛао

Описание: Джим был лучшим профессиональным снайпером, но теперь он оставил войны позади и ведет уединенную мирную жизнь. Покою приходит конец, когда он решает вступиться за беззащитного мальчика, случайно ставшего свидетелем преступлений могущественного наркокартеля. С этого момента Джиму предстоит в одиночку противостоять киллерам, используя все свои боевые навыки.



Страна: США
Студия: Cutting Edge Group, Raven Capital Management, Sculptor Media, Stonehouse Motion Pictures, UTA Independent Film Group, Voltage Pictures, Zero Gravity Management
Продолжительность: 01:47:29
Перевод: Профессиональный (многоголосый, закадровый) - HDRezka Studio



Информация о файле:
Кодек: AVC
Формат: MKV
Качество: WEB-DLRip-AVC
Видео: MPEG-4 AVC, 1024x428, 24.000 fps, 1896 kbps
Аудио RU: AC3, 6 ch, 48 kHz, 448 kbps
Аудио EN: AC3, 6 ch, 48 kHz, 384 kbps
Субтитры: Русские (Forced, full), английские
Навигация по главам: Да

x264 info: frame I:1188 Avg QP:12.94 size: 89054
x264 info: frame P:39439 Avg QP:16.52 size: 22808
x264 info: frame B:114154 Avg QP:20.83 size: 4547
x264 info: consecutive B-frames: 2.6% 4.3% 5.7% 62.0% 6.2% 11.1% 1.9% 4.5% 0.3% 0.1% 0.1% 0.5% 0.7%
General
Unique ID : 336764021301886486581332440718086137448 (0xFD5A642B0A8B530C423F9D89261A6668)
Complete name : D:uTorrentРипы_от_wolf1245_MediaBitThe Marksman.2021.MVO.WEB-DLRip-AVC.[wolf1245.MediaBit].mkv
Format : Matroska
Format version : Version 4
File size : 2.05 GiB
Duration : 1 h 47 min
Overall bit rate : 2 725 kb/s
Movie name : The Marksman.2021.MVO.WEB-DLRip-AVC.[wolf1245.MediaBit]
Encoded date : UTC 2021-04-18 07:39:19
Writing application : mkvmerge v56.1.0 ('My Friend') 64-bit
Writing library : libebml v1.4.2 + libmatroska v1.6.4
Video
ID : 1
Format : AVC
Format/Info : Advanced Video Codec
Format profile : High@L4.1
Format settings : CABAC / 14 Ref Frames
Format settings, CABAC : Yes
Format settings, Reference frames : 14 frames
Codec ID : V_MPEG4/ISO/AVC
Duration : 1 h 47 min
Bit rate : 1 896 kb/s
Width : 1 024 pixels
Height : 428 pixels
Display aspect ratio : 2.40:1
Frame rate mode : Constant
Frame rate : 24.000 FPS
Color space : YUV
Chroma subsampling : 4:2:0
Bit depth : 8 bits
Scan type : Progressive
Bits/(Pixel*Frame) : 0.180
Stream size : 1.42 GiB (69%)
Title : .[wolf1245.MediaBit]
Writing library : x264 core 157 r2958 57baac4
Encoding settings : cabac=1 / ref=14 / deblock=1:-3:-2 / analyse=0x3:0x133 / me=umh / subme=11 / psy=1 / psy_rd=0.98:0.05 / mixed_ref=1 / me_range=48 / chroma_me=1 / trellis=2 / 8x8dct=1 / cqm=0 / deadzone=21,11 / fast_pskip=1 / chroma_qp_offset=-3 / threads=10 / lookahead_threads=2 / sliced_threads=0 / nr=0 / decimate=1 / interlaced=0 / bluray_compat=0 / constrained_intra=0 / bframes=12 / b_pyramid=2 / b_adapt=2 / b_bias=0 / direct=3 / weightb=1 / open_gop=0 / weightp=2 / keyint=240 / keyint_min=24 / scenecut=40 / intra_refresh=0 / rc_lookahead=60 / rc=2pass / mbtree=1 / bitrate=1896 / ratetol=1.0 / qcomp=0.60 / qpmin=0 / qpmax=69 / qpstep=4 / cplxblur=20.0 / qblur=0.5 / vbv_maxrate=50000 / vbv_bufsize=62500 / nal_hrd=none / filler=0 / ip_ratio=1.40 / aq=1:0.80
Language : English
Default : Yes
Forced : No
Color range : Limited
Color primaries : BT.709
Transfer characteristics : BT.709
Matrix coefficients : BT.709
Audio #1
ID : 2
Format : AC-3
Format/Info : Audio Coding 3
Commercial name : Dolby Digital
Codec ID : A_AC3
Duration : 1 h 47 min
Bit rate mode : Constant
Bit rate : 448 kb/s
Channel(s) : 6 channels
Channel layout : L R C LFE Ls Rs
Sampling rate : 48.0 kHz
Frame rate : 31.250 FPS (1536 SPF)
Bit depth : 32 bits
Compression mode : Lossy
Stream size : 344 MiB (16%)
Title : MVO [HDRezka Studio]
Language : Russian
Service kind : Complete Main
Default : Yes
Forced : No
Audio #2
ID : 3
Format : AC-3
Format/Info : Audio Coding 3
Commercial name : Dolby Digital
Codec ID : A_AC3
Duration : 1 h 47 min
Bit rate mode : Constant
Bit rate : 384 kb/s
Channel(s) : 6 channels
Channel layout : L R C LFE Ls Rs
Sampling rate : 48.0 kHz
Frame rate : 31.250 FPS (1536 SPF)
Bit depth : 32 bits
Compression mode : Lossy
Stream size : 295 MiB (14%)
Title : Original
Language : English
Service kind : Complete Main
Default : No
Forced : No
Text #1
ID : 4
Format : UTF-8
Codec ID : S_TEXT/UTF8
Codec ID/Info : UTF-8 Plain Text
Duration : 1 h 37 min
Bit rate : 5 b/s
Count of elements : 136
Stream size : 4.24 KiB (0%)
Title : Forced
Language : Russian
Default : Yes
Forced : Yes
Text #2
ID : 5
Format : UTF-8
Codec ID : S_TEXT/UTF8
Codec ID/Info : UTF-8 Plain Text
Duration : 1 h 39 min
Bit rate : 52 b/s
Count of elements : 860
Stream size : 38.5 KiB (0%)
Title : Full
Language : Russian
Default : No
Forced : No
Text #3
ID : 6
Format : UTF-8
Codec ID : S_TEXT/UTF8
Codec ID/Info : UTF-8 Plain Text
Duration : 1 h 37 min
Bit rate : 31 b/s
Count of elements : 897
Stream size : 22.3 KiB (0%)
Title : Full
Language : English
Default : No
Forced : No
Menu
00:00:00.000 : :Chapter 01
00:04:18.916 : :Chapter 02
00:14:56.207 : :Chapter 03
00:30:25.539 : :Chapter 04
00:47:49.372 : :Chapter 05
00:58:16.955 : :Chapter 06
01:18:55.830 : :Chapter 07
01:32:26.205 : :Chapter 08
01:38:37.162 : :Chapter 09
01:42:26.869 : :Chapter 10
Релиз от: &
Автор релиза:
pb.wtf



Скачать Заступник через торрент https://i114.fastpic.ru/big/2021/0418/78/6f84b9226b0be38bbca7d3f4fbfbac78.jpg Скачать, смотреть онлайн Заступник бесплантно в хорошем качестве Описание: Джим был лучшим профессиональным снайпером, но теперь он оставил войны позади и ведет уединенную мирную жизнь. Покою приходит ... 8.2 10 5
Торрент: Зарегистрирован [2021-04-18 07:49] · скачан: 151 раз
Статус: √ проверено
Размер: 2.05 GB
Как cкачать? Как скачать Заступник через торрент | UTorrent

28-11-2019 20:33  

Отключить всю рекламу на сайте

    Дорогой пользователь! Огромная просьба, поблагодарите релизера, оцените раздачу и оставьте свои комментарий, если Вы скачали Заступник через торрент бесплатно!
    Комментировать посты могут только пользователи прошедшие не сложную регистрацию
    Показать сообщения:    

    Заступник через торрент
    Скачать бесплатно Заступник
    Заступник скачать торрент
    Заступник смотреть онлайн
    Cкачать фильм Заступник бесплатно
    Заступник скачать торрент в хорошем качестве
    Заступник смотреть онлайн бесплатно в хорошем качестве


    Вы не можете начинать темы
    Вы не можете отвечать на сообщения
    Вы не можете редактировать свои сообщения
    Вы не можете удалять свои сообщения
    Вы не можете голосовать в опросах
    Вы не можете прикреплять файлы к сообщениям
    Вы можете скачивать файлы