Присоединяйтесь к нам в Telegram!, здесь всегда актуальный адрес сайта, оперативная поддержка и многое другое!!

>

5.9

iTunes

7.4

iTunes

9.4

1 сезон

1

7.4

2 сезон

7.2

iTunes

7.3

1 сезон

13

6.1

iTunes

8.3

GOG

30

ULTIMATE

pack

9.9

Лицензия

ВАЖНО

ИГРА 18+

pack

7.3

RePack

MK11

7.7

RePack

jed

7.8

RePack

fifa19

8.5

RePack

RDR2

RePack

NEED FOR SPEED™ PAYBACK

5 сезон

9 сезон

Бесстыжие 9 сезон

Все сериалы

все сериалы на PB.wtf

RePack

FAR CRY 5

Anonymous, добрый день, мы катастрофически не успеваем собрать деньги на оплату серверов, помогите нам пожалуйста 5,10,15р., для нас важна любая помощь . В качестве благодарности мы отключим Вам всю рекламу на сайте (укажите свой ник в строку Ваше имя)!

×
  
Magnet ссылка

Хребет дьявола / Shookum Hills / The Devil Below (Брэдли Паркер) [2021, Ужасы, WEB-DLRip-AVC] DUB [iTunes] от MediaBit pb.wtf

Хребет дьявола через торрент pb.wtf

Раздают: 2 [ 0 KB/s ]
Размер: 2.05 GB | Добавлен: 7 мес. назад | Торрент скачан:430 раз
Смотреть онлайн Хребет дьявола | Скачать    Ребята, помогите собрать деньги на оплату серверов!!!

18-04-2021 10:14 Хребет дьявола Скачать торрент  


Хребет дьявола / Shookum Hills / The Devil Below
Информация о фильме:
Название: Хребет дьявола
Оригинальное название: Shookum Hills / The Devil Below
Год выхода: 2021
Жанр: Ужасы
Режиссер: Брэдли Паркер
В ролях: Алисия Санс, Адан Канто, Уилл Пэттон, Зак Эйвери, Чиназа Уче, Джонатан Садовский, Джесси ЛаТуретт, Марк МакКалло, Альфа Триветт, Том Проктер

Описание: Группа молодых геологов нанимает отчаянную девушку-проводника, чтобы она доставила их в загадочный шахтёрский городок, в котором много лет назад произошёл пожар и который теперь не обозначен на картах. Заплутав, компания спрашивает дорогу у местных, но те советуют убираться подобру-поздорову и даже начинают преследовать незваных гостей. Несмотря на это, геологи все же находят скрытую в лесу дорогу и заброшенный городок, окруженный забором под напряжением, а внутри периметра — странные дыры в земле.



Страна: США
Студия: 1inMM Productions
Продолжительность: 01:28:57
Перевод: Дублированное - iTunes



Информация о файле:
Кодек: AVC
Формат: MKV
Качество: WEB-DLRip-AVC
Видео: MPEG-4 AVC, 1024x552, 23.976 fps, 2529 kbps
Аудио RU: AC3, 6 ch, 48 kHz, 384 kbps
Аудио EN: AC3, 6 ch, 48 kHz, 384 kbps
Субтитры: English
Навигация по главам: Да

x264 info: frame I:847 Avg QP:11.16 size: 81324
x264 info: frame P:33234 Avg QP:14.20 size: 26590
x264 info: frame B:93883 Avg QP:16.65 size: 7815
x264 info: consecutive B-frames: 2.6% 5.1% 10.8% 48.8% 14.1% 13.7% 2.1% 1.3% 0.4% 0.2% 0.2% 0.4% 0.5%
General
Unique ID : 184368318146245601842997584218744920558 (0x8AB40BE58CFEECBBB4C9FEFED95B99EE)
Complete name : D:uTorrentРипы_от_wolf1245_MediaBitThe Devil Below.2021.DUB.WEB-DLRip-AVC.[wolf1245.MediaBit].mkv
Format : Matroska
Format version : Version 4
File size : 2.05 GiB
Duration : 1 h 28 min
Overall bit rate : 3 298 kb/s
Movie name : The Devil Below.2021.DUB.WEB-DLRip-AVC.[wolf1245.MediaBit]
Encoded date : UTC 2021-04-18 09:58:21
Writing application : mkvmerge v56.1.0 ('My Friend') 64-bit
Writing library : libebml v1.4.2 + libmatroska v1.6.4
Video
ID : 1
Format : AVC
Format/Info : Advanced Video Codec
Format profile : High@L4.1
Format settings : CABAC / 14 Ref Frames
Format settings, CABAC : Yes
Format settings, Reference frames : 14 frames
Codec ID : V_MPEG4/ISO/AVC
Duration : 1 h 28 min
Bit rate : 2 529 kb/s
Width : 1 024 pixels
Height : 552 pixels
Display aspect ratio : 1.85:1
Frame rate mode : Constant
Frame rate : 23.976 (24000/1001) FPS
Color space : YUV
Chroma subsampling : 4:2:0
Bit depth : 8 bits
Scan type : Progressive
Bits/(Pixel*Frame) : 0.187
Stream size : 1.57 GiB (77%)
Title : .[wolf1245.MediaBit]
Writing library : x264 core 157 r2958 57baac4
Encoding settings : cabac=1 / ref=14 / deblock=1:0:0 / analyse=0x3:0x133 / me=umh / subme=10 / psy=1 / psy_rd=0.98:0.00 / mixed_ref=1 / me_range=32 / chroma_me=1 / trellis=2 / 8x8dct=1 / cqm=0 / deadzone=21,11 / fast_pskip=1 / chroma_qp_offset=-2 / threads=10 / lookahead_threads=2 / sliced_threads=0 / nr=0 / decimate=1 / interlaced=0 / bluray_compat=0 / constrained_intra=0 / bframes=12 / b_pyramid=2 / b_adapt=2 / b_bias=0 / direct=3 / weightb=1 / open_gop=0 / weightp=2 / keyint=240 / keyint_min=24 / scenecut=40 / intra_refresh=0 / rc_lookahead=60 / rc=2pass / mbtree=1 / bitrate=2529 / ratetol=1.0 / qcomp=0.60 / qpmin=0 / qpmax=69 / qpstep=4 / cplxblur=20.0 / qblur=0.5 / vbv_maxrate=50000 / vbv_bufsize=62500 / nal_hrd=none / filler=0 / ip_ratio=1.40 / aq=1:0.80
Language : English
Default : Yes
Forced : No
Color range : Limited
Color primaries : BT.709
Transfer characteristics : BT.709
Matrix coefficients : BT.709
Audio #1
ID : 2
Format : AC-3
Format/Info : Audio Coding 3
Commercial name : Dolby Digital
Codec ID : A_AC3
Duration : 1 h 28 min
Bit rate mode : Constant
Bit rate : 384 kb/s
Channel(s) : 6 channels
Channel layout : L R C LFE Ls Rs
Sampling rate : 48.0 kHz
Frame rate : 31.250 FPS (1536 SPF)
Bit depth : 32 bits
Compression mode : Lossy
Stream size : 244 MiB (12%)
Title : DUB (iTunes)
Language : Russian
Service kind : Complete Main
Default : Yes
Forced : No
Audio #2
ID : 3
Format : AC-3
Format/Info : Audio Coding 3
Commercial name : Dolby Digital
Codec ID : A_AC3
Duration : 1 h 28 min
Bit rate mode : Constant
Bit rate : 384 kb/s
Channel(s) : 6 channels
Channel layout : L R C LFE Ls Rs
Sampling rate : 48.0 kHz
Frame rate : 31.250 FPS (1536 SPF)
Bit depth : 32 bits
Compression mode : Lossy
Stream size : 244 MiB (12%)
Title : Original
Language : English
Service kind : Complete Main
Default : No
Forced : No
Text
ID : 4
Format : UTF-8
Codec ID : S_TEXT/UTF8
Codec ID/Info : UTF-8 Plain Text
Duration : 1 h 19 min
Bit rate : 37 b/s
Count of elements : 825
Stream size : 21.8 KiB (0%)
Language : English
Default : No
Forced : No
Menu
00:00:00.000 : :1
00:11:04.000 : :2
00:23:40.000 : :3
00:34:15.000 : :4
00:47:35.000 : :5
00:57:18.000 : :6
01:09:15.000 : :7
01:22:13.000 : :8
Релиз от: &
Автор релиза:
pb.wtf



Скачать Хребет дьявола через торрент https://i114.fastpic.ru/big/2021/0418/75/49cdd25b1a16e1a40fa842d778075b75.png Скачать, смотреть онлайн Хребет дьявола бесплантно в хорошем качестве Описание: Группа молодых геологов нанимает отчаянную девушку-проводника, чтобы она доставила их в загадочный шахтёрский городок, в ... 10 10 8
Торрент: Зарегистрирован [2021-04-18 10:14] · скачан: 430 раз
Статус: √ проверено
Размер: 2.05 GB
Как cкачать? Как скачать Хребет дьявола через торрент | UTorrent

28-11-2019 20:33  

Отключить всю рекламу на сайте

    Дорогой пользователь! Огромная просьба, поблагодарите релизера, оцените раздачу и оставьте свои комментарий, если Вы скачали Хребет дьявола через торрент бесплатно!
    Комментировать посты могут только пользователи прошедшие не сложную регистрацию
    Показать сообщения:    

    Хребет дьявола через торрент
    Скачать бесплатно Хребет дьявола
    Хребет дьявола скачать торрент
    Хребет дьявола смотреть онлайн
    Cкачать фильм Хребет дьявола бесплатно
    Хребет дьявола скачать торрент в хорошем качестве
    Хребет дьявола смотреть онлайн бесплатно в хорошем качестве


    Вы не можете начинать темы
    Вы не можете отвечать на сообщения
    Вы не можете редактировать свои сообщения
    Вы не можете удалять свои сообщения
    Вы не можете голосовать в опросах
    Вы не можете прикреплять файлы к сообщениям
    Вы можете скачивать файлы