1 сезон

1 сезон

iTunes

1

iTunes

Кинопоиск HD

iTunes

13

1 сезон

RePack

30

Deluxe

ВАЖНО

ИГРА 18+

pack

RePack

MK11
pack

Легкие деньги

RePack

jed

RePack

fifa19

RePack

RDR2

RePack

NEED FOR SPEED™ PAYBACK

4 сезон

9 сезон

Бесстыжие 9 сезон

Все сериалы

все сериалы на PB.wtf

RePack

FAR CRY 5
  
Magnet ссылка

Игры шпионов / The Courier (Доминик Кук) [2020, триллер, WEB-DL 1080p] [DUB] [Line] pb.wtf

Игры шпионов через торрент pb.wtf

Раздают: 5 [ 0 KB/s ]
Размер: 7.08 GB | Добавлен: 24 д. назад | Торрент скачан:161 раз
Скачать  

18-04-2021 16:59 Игры шпионов Скачать торрент  

Игры шпионов / The Courier
Год выхода: 2020
Страна: Великобритания, США
Жанр: триллер
Продолжительность: 01:51:55
Перевод: Дублированный [Line]
Режиссер: Доминик Кук / Dominic Cooke
В ролях:
Бенедикт Камбербэтч, Мераб Нинидзе, Рэйчел Броснахэн, Джесси Бакли, Энгус Райт, Джозеф Балдеррама, Кирилл Пирогов, Владимир Чуприков, Мария Миронова, Фред Хейг, Эмма Пензина, Антон Лессер, Петр Климеш, Элис Орр-Юинг, Оливер Джонстон, Джонатан Харден, Ричард Глейвз, Ондржей Малый
О фильме:
Во время Холодной войны Олег Пеньковский, полковник ГРУ генштаба Минобороны, выходит на связь с Гревиллом Винном, британским бизнесменом и шпионом, заинтересованном в постоянном контакте с Москвой. Разведчики договариваются о сотрудничестве, не представляя, чем оно закончится для каждого.

rating
-Сэмпл -

Присутствует баннер, аудиореклама!

Качество: WEB-DL 1080p
Формат: MKV
Видео: AVC, 1920x808, 23.976 fps, 8 668 kb/s
Аудио: 48 kHz, AAC, 2 ch, ~384.00 kbps avg
Общее
Уникальный идентификатор : 203000624317736927645546065056594338993 (0x98B87F8427D0AD7285C398B2A6E324B1)
Полное имя : The.Courier.(2020).WEB-DLRip.1080p.Line.mkv
Формат : Matroska
Версия формата : Version 4
Размер файла : 7,08 Гбайт
Продолжительность : 1 ч. 51 м.
Режим общего битрейта : Переменный
Общий поток : 9054 Кбит/сек
Дата кодирования : UTC 2021-04-19 13:48:50
Программа кодирования : mkvmerge v8.3.0 ('Over the Horizon') 64bit
Библиотека кодирования : libebml v1.3.1 + libmatroska v1.4.2

Видео
Идентификатор : 1
Формат : AVC
Формат/Информация : Advanced Video Codec
Профиль формата : High@L4.1
Настройки формата : CABAC / 4 Ref Frames
Параметр CABAC формата : Да
Параметр RefFrames формата : 4 кадра
Идентификатор кодека : V_MPEG4/ISO/AVC
Продолжительность : 1 ч. 51 м.
Вид битрейта : Переменный
Битрейт : 8670 Кбит/сек
Максимальный битрейт : 10000 Кбит/сек
Ширина : 1920 пикселей
Высота : 808 пикселей
Соотношение сторон : 2,40:1
Режим частоты кадров : Постоянный
Частота кадров : 23,976 (24000/1001) кадра/сек
Стандарт вещания : Component
Цветовое пространство : YUV
Субдискретизация насыщенности : 4:2:0
Битовая глубина : 8 бит
Тип развёртки : Прогрессивная
Бит/(Пиксели*Кадры) : 0.233
Размер потока : 6,78 Гбайт (96%)
Default : Да
Forced : Нет
Цветовой диапазон : Limited
Основные цвета : BT.709
Характеристики трансфера : BT.709
Коэффициенты матрицы : BT.709

Аудио
Идентификатор : 2
Формат : AAC Main
Формат/Информация : Advanced Audio Codec
Идентификатор кодека : A_AAC-1
Продолжительность : 1 ч. 51 м.
Битрейт : 384 Кбит/сек
Каналы : 2 канала
Channel layout : L R
Частота : 48,0 КГц
Частота кадров : 46,875 кадров/сек (1024 SPF)
Метод сжатия : С потерями
Задержка видео : 17 мс.
Размер потока : 305 Мбайт (4%)
Заголовок : DUB (Line)
Язык : Russian
Default : Да
Forced : Нет

скриншот  скриншот  скриншот  
pb.wtf



Скачать Игры шпионов через торрент https://i114.fastpic.ru/big/2021/0418/e2/36c61aba88f579592a14f2300f265de2.jpg Скачать фильм Игры шпионов через торрент бесплантно в хорошем качестве О фильме:Во время Холодной войны Олег Пеньковский, полковник ГРУ генштаба Минобороны, выходит на связь с Гревиллом Винном, британским ... 9.1 10 10
Торрент: Зарегистрирован [2021-04-19 15:24] · скачан: 161 раз
Статус: T временная
Размер: 7.08 GB
Как cкачать? Как скачать Игры шпионов через торрент | UTorrent

% Раздел Тема Автор DL S | L
Фильмы 2019-2020 [DVDrip, WEB-DLRip, HDrip] (DUB, MVO) [ 1.45 GB ] Игры шпионов / The Courier [2020 WEB-DLRip] MVO [HDRezka Studio] bober100 Скачать
5 | 0
Ultra HD (UHD: 2K, 4K, 8K) — видео сверхвысокой чёткости [ 12.14 GB ] Игры шпионов / The Courier [2020 UHD WEB-DL 2160p] MVO [HDRezka Studio] bober100 Скачать
10 | 0
Фильмы (WEB-DL 720p, 1080p) [ 6.25 GB ] Игры шпионов / The Courier [2020 WEB-DL 1080p] MVO [HDRezka Studio] bober100 Скачать
11 | 0
Фильмы с украинским озвучиванием [ 2.16 GB ] Игры шпионов / Кур'єр / The Courier [2020 WEBRip 720p] [Ukr MVO] killermax2013 Скачать
3 | 0
T Фильмы (мультфильмы) cо спонсором показа (Новинки AVI/MKV) [ 1.42 GB ] Игры шпионов / The Courier [2020 WEB-DLRip] [Line] killermax2013 Скачать
7 | 0
T Фильмы (WEB-DL 720p, 1080p) [ 5.9 GB ] Игры шпионов / The Courier [2020 WEB-DL 1080p] [DVO] killermax2013 Скачать
3 | 0
T Фильмы 2019-2020 (Звук TS, Cam, VO, DVO) [ 1.46 GB ] Игры шпионов / The Courier [2020 WEB-DLRip] [DVO] killermax2013 Скачать
2 | 0

28-11-2019 20:33  

Отключить всю рекламу на сайте

    Дорогой пользователь! Огромная просьба, поблагодарите релизера, оцените раздачу и оставьте свои комментарий, если Вы скачали Игры шпионов через торрент бесплатно! Внесите свою лепту в развитие PiratBit!
    Комментировать посты могут только пользователи прошедшие не сложную регистрацию
    Показать сообщения:    

    Игры шпионов через торрент
    Скачать бесплатно Игры шпионов
    Игры шпионов скачать торрент
    Игры шпионов смотреть онлайн
    Cкачать фильм Игры шпионов бесплатно
    Игры шпионов скачать торрент в хорошем качестве
    Игры шпионов смотреть онлайн бесплатно в хорошем качестве


    Вы не можете начинать темы
    Вы не можете отвечать на сообщения
    Вы не можете редактировать свои сообщения
    Вы не можете удалять свои сообщения
    Вы не можете голосовать в опросах
    Вы не можете прикреплять файлы к сообщениям
    Вы можете скачивать файлы