Anonymous, доброй ночи, присоединяйтесь к нам в Telegram!, здесь всегда актуальный адрес сайта, оперативная поддержка и многое другое!

>

5.6

iTunes

7.4

MVO

5.7

MVO

1

7.7

1 сезон

6.8

iTunes

7.3

1 сезон

13

6.7

1 сезон

8.3

RePack

30

ULTIMATE

pack

9.9

Лицензия

ВАЖНО

ИГРА 18+

pack

7.3

RePack

MK11

7.7

RePack

jed

7.8

RePack

fifa19

8.5

RePack

RDR2

RePack

NEED FOR SPEED™ PAYBACK

4 сезон

9 сезон

Бесстыжие 9 сезон

Все сериалы

все сериалы на PB.wtf

RePack

FAR CRY 5

Anonymous, доброй ночи, мы катастрофически не успеваем собрать деньги на оплату серверов, помогите нам пожалуйста 5,10,15р., для нас важна любая помощь . В качестве благодарности мы отключим Вам всю рекламу на сайте (укажите свой ник в строку Ваше имя)!

×
  
Magnet ссылка

Жуки / Сезон: 2 / Серии: 1-16 из 16 + Фильм о фильме (Константин Колесов) [2021, Комедия, WEBRip 720p] pb.wtf

Жуки через торрент pb.wtf

Раздают: 1 [ 0 KB/s ]
Размер: 8.77 GB | Добавлен: 5 мес. 16 д. назад | Торрент скачан:403 раза
Смотреть онлайн Жуки | Скачать    Ребята, помогите собрать деньги на оплату серверов!!!

19-04-2021 22:55 Жуки Скачать торрент  

Жуки
Год выпуска: 2021
Страна: Россия
Студия: Comedy Club Production
Жанр: Комедия
Продолжительность: ~ 00:25:00

Режиссер: Константин Колесов



В ролях:
Вячеслав Чепурченко, Вадим Дубровин, Павел Комаров (II), Елизавета Гончаренко, Владимир Епифанцев, Максим Лагашкин, Екатерина Стулова, Виктор Бычков, Игорь Верник, Анатолий Журавлёв, Карина Мишулина, Дарья Алыпова, Валерий Новиков, Евгения Капралова, Виктор Конухин, Наташа Васильева (VIII), Валентин Самохин, Дарья Пескова, Иван Бычков (III)

Описание:
Не пытайтесь покинуть Жуки… Пусть даже за вами гоняется деревенский участковый с пистолетом, а над душой стоит инвестор, предлагающий огромные деньги за продажу мобильного приложения. В новом сезоне главные герои сериала – Никита, Дэн и Артемий – продолжают работать над приложением для знакомств под присмотром инвестора, который всё-таки добрался до Жуков и теперь живёт тут, несмотря на сопротивление участкового Маслова. Тот в свою очередь сталкивается с новой проблемой: в деревню нагрянула его дочь, вылетевшая из Школы полиции.

Качество: WEBRip 720p
Формат: MKV

Видео: 3000 Кбит/сек, 1280*720 (16:9), в 25,000 кадров/сек, AVC
Аудио: 192 Кбит/сек, 48,0 КГц, 16 бит, 2 канала, AC-3

Внимание! Раздача ведётся путём добавления новых серий; при каждом добавлении создаётся новый торрент. Чтобы начать докачку новой серии, пользователям необходимо сделать следующее:
(1) остановить скачивание,
(2) удалить старый торрент у себя из клиента (старые серии удалять не надо),
(3) скачать новый торрент и запустить его у себя в клиенте вместо старого, при этом указать клиенту путь в старую папку куда и должно происходить скачивание новых серий.

Ваш клиент при этом должен произвести хеширование (проверку) старой папки (если не производит сам - помогите ему сделать это), и будет докачивать только те серии которых у вас ещё нет. Старые серии при этом не удаляются, а продолжают раздаваться!

Eсли вы уже удалили старые серии, то предотвратить повторную закачку старых серий можно, отжав галочку в соответствующих местах при запуске нового торрента. По возможности, желательно не удалять старые серии как можно дольше чтобы релизёр не столько продолжал раздавать старые серии, а смог сконцентрироваться на новых.
Общее
Уникальный идентификатор : 75304093580968706203597671559708965898 (0x38A70A76DDB836B71F4507734A5A7C0A)
Полное имя : G:\Zhuki.S02.2021.WEB-DL.720p\05.Zhuki.S02.2021.WEB-DL.720p.mkv
Формат : Matroska
Версия формата : Version 4
Размер файла : 543 Мбайт
Продолжительность : 23 м. 49 с.
Режим общего битрейта : Переменный
Общий поток : 3187 Кбит/сек
Название фильма : 05.Zhuki.S02.2021.WEB-DL.720p
Дата кодирования : UTC 2021-04-08 18:14:57
Программа кодирования : mkvmerge v56.0.0 ('Strasbourg / St. Denis') 64-bit
Библиотека кодирования : libebml v1.4.2 + libmatroska v1.6.4
Attachments : poster.jpeg

Видео
Идентификатор : 1
Формат : AVC
Формат/Информация : Advanced Video Codec
Профиль формата : High@L3.1
Настройки формата : CABAC / 1 Ref Frames
Параметр CABAC формата : Да
Параметр RefFrames формата : 1 кадр
Параметр GOP формата : M=1, N=50
Идентификатор кодека : V_MPEG4/ISO/AVC
Продолжительность : 23 м. 49 с.
Вид битрейта : Переменный
Битрейт : 3000 Кбит/сек
Ширина : 1280 пикселей
Высота : 720 пикселей
Соотношение сторон : 16:9
Режим частоты кадров : Постоянный
Частота кадров : 25,000 кадров/сек
Цветовое пространство : YUV
Субдискретизация насыщенности : 4:2:0
Битовая глубина : 8 бит
Тип развёртки : Прогрессивная
Бит/(Пиксели*Кадры) : 0.130
Размер потока : 510 Мбайт (94%)
Default : Да
Forced : Нет

Аудио
Идентификатор : 2
Формат : AC-3
Формат/Информация : Audio Coding 3
Коммерческое название : Dolby Digital
Идентификатор кодека : A_AC3
Продолжительность : 23 м. 49 с.
Вид битрейта : Постоянный
Битрейт : 192 Кбит/сек
Каналы : 2 канала
ChannelLayout : L R
Частота : 48,0 КГц
Частота кадров : 31,250 кадров/сек (1536 SPF)
Битовая глубина : 16 бит
Метод сжатия : С потерями
Размер потока : 32,7 Мбайт (6%)
ServiceKind/String : Complete Main
Default : Да
Forced : Нет


Скриншоты:
скриншот   скриншот   скриншот   скриншот  скриншот   скриншот   скриншот   
скриншот  
pb.wtf



Скачать Жуки через торрент https://pic1.kartinco.top/new/img/2021-04/20/tkcshd148v65ng7txtk497btz.jpg Скачать, смотреть онлайн Жуки бесплантно в хорошем качестве Описание: Не пытайтесь покинуть Жуки… Пусть даже за вами гоняется деревенский участковый с пистолетом, а над душой стоит инвестор, ... 9.9 10 33
Info! Золотая раздача, скачанное не засчитывается.
Торрент: Зарегистрирован [2021-04-29 22:22] · скачан: 403 раз
Статус: √ проверено
Размер: 8.77 GB
Как cкачать? Как скачать Жуки через торрент | UTorrent

% Раздел Тема Автор DL S | L
TNT serials [ 4.95 GB ] Жуки / Сезон: 2 / Серии: 1-16 из 16 + Фильм о фильме [2021 WEBRip ] bober100 Скачать
1 | 0
TNT serials [ 5.44 GB ] Жуки / Сезон: 2 / Серии: 1-16 из 16 + Фильм о фильме [2021 SATRip] bober100 Скачать
1 | 0

28-11-2019 20:33  

Отключить всю рекламу на сайте

30-04-2021 15:39 Жуки Скачать торрент  

хрень полнейшая
первый сезон 7 серий, было смешно, 2 сезон отстойpb.wtf



30-04-2021 17:11 Жуки Скачать торрент  

Сериал топчик! Жаль,что 2 сезон уже закончился.pb.wtf



    Дорогой пользователь! Огромная просьба, поблагодарите релизера, оцените раздачу и оставьте свои комментарий, если Вы скачали Жуки через торрент бесплатно!
    Комментировать посты могут только пользователи прошедшие не сложную регистрацию
    Показать сообщения:    

    Жуки через торрент
    Скачать бесплатно Жуки
    Жуки скачать торрент
    Жуки смотреть онлайн
    Cкачать фильм Жуки бесплатно
    Жуки скачать торрент в хорошем качестве
    Жуки смотреть онлайн бесплатно в хорошем качестве


    Вы не можете начинать темы
    Вы не можете отвечать на сообщения
    Вы не можете редактировать свои сообщения
    Вы не можете удалять свои сообщения
    Вы не можете голосовать в опросах
    Вы не можете прикреплять файлы к сообщениям
    Вы можете скачивать файлы