Достать ножи: Стеклянная луковица

MVO

Добыча

Дубляж

Уэнсдэй

1 сезон

Тор

Дубляж

13 клиническая

1 сезон

Жестокая ночь

MVO

Одни из нас

1 сезон

Deluxe

pack

Рекомендуем

30

Пиратка

ВАЖНО

ВАЖНО

Ghostwire

Пиратка

jed

RePack

nioh2

RePack

RDR2

RePack

NEED FOR SPEED™ PAYBACK

RePack

скачать торрент

Кинопоиск HD

Острые козырьки 6 сезон

6 сезон

FAR CRY 6

RePack

скачать торрент

Лицензия

скачать торрент

MVO

1

1 сезон

скачать торрент

1 сезон

скачать торрент

Лицензия

  

Заступник / The Marksman (Роберт Лоренц) [2021, Боевик, криминал, триллер, WEB-DLRip-AVC] Дубляж [iTunes] +MVO [HDRezka]

Заступник через торрент pb.wtf

Размер: 1.96 GB | Добавлен: 1 год 9 мес. назад | Торрент скачан:100 раз
Смотреть онлайн | Скачать | Поддержите нас   

20-04-2021 03:09 Заступник Скачать торрент  

Заступник | The Marksman
Год выпуска: 2021
Страна: США
Студия: Cutting Edge Group, Raven Capital Management, Sculptor Media, Stonehouse Motion Pictures, UTA Independent Film Group, Voltage Pictures, Zero Gravity Management
Жанр: Боевик, криминал, триллер
Продолжительность: 01:47:29
Перевод(ы):
#1: Дублированный | iTunes
#2: Профессиональный (многоголосый) | HDRezka
Субтитры: Русские (полные, форсированные), английские

Режиссер: Роберт Лоренц

rating

В ролях: Лиам Нисон, Кэтрин Уинник, Тереса Руис, Хуан Пабло Раба, Грэйсон Берри, Лелия Симингтон, Люче Рэйнс, Дилан Кенин, Чейз Маллинз, Томми Лафит, Шон А. Розалес, Хосе Л. Васкес, Антонио Лейба, Алекс Найт, Дэвид ДеЛао

Описание: Джим был лучшим профессиональным снайпером, но теперь он оставил войны позади и ведет уединенную мирную жизнь. Покою приходит конец, когда он решает вступиться за беззащитного мальчика, случайно ставшего свидетелем преступлений могущественного наркокартеля. С этого момента Джиму предстоит в одиночку противостоять киллерам, используя все свои боевые навыки.

Качество: WEB-DLRip-AVC
Формат: MKV

Видео: 1024x428 (2.40:1), 24,000 fps, x264 ~1 785 kbps avg, 0.170 bit/pixel
Аудио#1: 48 kHz, AC3 Dolby Digital, 3/2 (L,C,R,l,r) + LFE ch, ~384.00 kbps avg | RUS (iTunes)
Аудио#2: 48 kHz, AC3 Dolby Digital, 3/2 (L,C,R,l,r) + LFE ch, ~448.00 kbps avg | RUS (HDRezka)
скриншот  скриншот  скриншот  скриншот  скриншот  

General
Unique ID : 88512155099930751925202276653878344315 (0x4296D22CB91D4FD692CE6D4CCA79FA7B)
Complete name : D:OlLanDGroupThe Marksman.2021.WEB-DLRip(AVC).OllanDGroup.mkv
Format : Matroska
Format version : Version 4
File size : 1.96 GiB
Duration : 1 h 47 min
Overall bit rate : 2 612 kb/s
Movie name : The Marksman 2021 #TorpedoUK#
Encoded date : UTC 2021-04-20 01:05:40
Writing application : mkvmerge v56.0.0 ('Strasbourg / St. Denis') 64-bit
Writing library : libebml v1.4.2 + libmatroska v1.6.4

Video
ID : 1
Format : AVC
Format/Info : Advanced Video Codec
Format profile : [email protected]
Format settings : CABAC / 10 Ref Frames
Format settings, CABAC : Yes
Format settings, Reference frames : 10 frames
Codec ID : V_MPEG4/ISO/AVC
Duration : 1 h 47 min
Bit rate : 1 785 kb/s
Width : 1 024 pixels
Height : 428 pixels
Display aspect ratio : 2.40:1
Frame rate mode : Constant
Frame rate : 24.000 FPS
Color space : YUV
Chroma subsampling : 4:2:0
Bit depth : 8 bits
Scan type : Progressive
Bits/(Pixel*Frame) : 0.170
Stream size : 1.34 GiB (68%)
Writing library : x264 core 146 r2538 121396c
Encoding settings : cabac=1 / ref=10 / deblock=1:-2:-3 / analyse=0x3:0x113 / me=umh / subme=10 / psy=1 / psy_rd=0.97:0.05 / mixed_ref=1 / me_range=48 / chroma_me=1 / trellis=2 / 8x8dct=1 / cqm=0 / deadzone=21,11 / fast_pskip=1 / chroma_qp_offset=-6 / threads=6 / lookahead_threads=1 / sliced_threads=0 / nr=0 / decimate=1 / interlaced=0 / bluray_compat=0 / constrained_intra=0 / bframes=11 / b_pyramid=2 / b_adapt=2 / b_bias=0 / direct=3 / weightb=1 / open_gop=0 / weightp=2 / keyint=240 / keyint_min=24 / scenecut=40 / intra_refresh=0 / rc_lookahead=40 / rc=2pass / mbtree=0 / bitrate=1785 / ratetol=1.0 / qcomp=0.60 / qpmin=0 / qpmax=69 / qpstep=4 / cplxblur=20.0 / qblur=0.5 / vbv_maxrate=50000 / vbv_bufsize=62500 / nal_hrd=none / filler=0 / ip_ratio=1.40 / pb_ratio=1.30 / aq=1:1.00
Language : English
Default : Yes
Forced : No

Audio #1
ID : 2
Format : AC-3
Format/Info : Audio Coding 3
Commercial name : Dolby Digital
Codec ID : A_AC3
Duration : 1 h 47 min
Bit rate mode : Constant
Bit rate : 384 kb/s
Channel(s) : 6 channels
Channel layout : L R C LFE Ls Rs
Sampling rate : 48.0 kHz
Frame rate : 31.250 FPS (1536 SPF)
Compression mode : Lossy
Stream size : 295 MiB (15%)
Title : Дубляж [iTunes]
Language : Russian
Service kind : Complete Main
Default : Yes
Forced : Yes

Audio #2
ID : 3
Format : AC-3
Format/Info : Audio Coding 3
Commercial name : Dolby Digital
Codec ID : A_AC3
Duration : 1 h 47 min
Bit rate mode : Constant
Bit rate : 448 kb/s
Channel(s) : 6 channels
Channel layout : L R C LFE Ls Rs
Sampling rate : 48.0 kHz
Frame rate : 31.250 FPS (1536 SPF)
Compression mode : Lossy
Stream size : 344 MiB (17%)
Title : MVO [HDRezka]
Language : Russian
Service kind : Complete Main
Default : No
Forced : No

Text #1
ID : 4
Format : UTF-8
Codec ID : S_TEXT/UTF8
Codec ID/Info : UTF-8 Plain Text
Duration : 1 h 37 min
Bit rate : 5 b/s
Count of elements : 136
Stream size : 4.24 KiB (0%)
Title : Forced [HDRezka]
Language : Russian
Default : Yes
Forced : No

Text #2
ID : 5
Format : UTF-8
Codec ID : S_TEXT/UTF8
Codec ID/Info : UTF-8 Plain Text
Duration : 1 h 39 min
Bit rate : 52 b/s
Count of elements : 859
Stream size : 38.4 KiB (0%)
Title : Full [iTunes]
Language : Russian
Default : No
Forced : No

Text #3
ID : 6
Format : UTF-8
Codec ID : S_TEXT/UTF8
Codec ID/Info : UTF-8 Plain Text
Duration : 1 h 39 min
Bit rate : 52 b/s
Count of elements : 860
Stream size : 38.5 KiB (0%)
Title : Full [milf2010]
Language : Russian
Default : No
Forced : No

Text #4
ID : 7
Format : UTF-8
Codec ID : S_TEXT/UTF8
Codec ID/Info : UTF-8 Plain Text
Duration : 1 h 37 min
Bit rate : 31 b/s
Count of elements : 897
Stream size : 22.3 KiB (0%)
Title : Full
Language : English
Default : No
Forced : No

Menu
00:00:00.000 : Chapter 01
00:04:18.916 : Chapter 02
00:14:56.207 : Chapter 03
00:30:25.539 : Chapter 04
00:47:49.372 : Chapter 05
00:58:16.955 : Chapter 06
01:18:55.830 : Chapter 07
01:32:26.205 : Chapter 08
01:38:37.162 : Chapter 09
01:42:26.869 : Chapter 10




Скачать Заступник через торрент https://b.radikal.ru/b31/2104/ae/15b47fb9190b.jpg Скачать, смотреть онлайн Заступник бесплантно в хорошем качестве Описание: Джим был лучшим профессиональным снайпером, но теперь он оставил войны позади и ведет уединенную мирную жизнь. Покою приходит ... 10 10 5
Торрент: Зарегистрирован [2021-04-20 03:09] · скачан: 100 раз
Статус: √ проверено
Размер: 1.96 GB
Как cкачать? Как скачать Заступник через торрент | UTorrent

% Раздел Тема Автор DL S | L
Фильмы (Blu-ray, BD-Remux, HDDVD) [ 25.27 GB ] Заступник / The Marksman | iTunes | BD Remux 1080p bober100 Скачать
1 | 0
Фильмы [HD 720p, 1080p] (Хороший звук DUB, MVO) [ 8.4 GB ] Заступник / The Marksman | iTunes | 1080p bober100 Скачать
2 | 0
Фильмы [HD 720p, 1080p] (Хороший звук DUB, MVO) [ 3.45 GB ] Заступник / The Marksman | iTunes | 720p bober100 Скачать
1 | 0
Фильмы (WEB-DL 720p, 1080p) [ 6.03 GB ] Заступник / The Marksman | iTunes | 1080p bober100 Скачать
1 | 0
Фильмы 2021 [DVDrip, WEB-DLRip, HDrip] (DUB, MVO) [ 1.48 GB ] Заступник / The Marksman | iTunes | DLRip-AVC sokol_ok Скачать
3 | 0
Фильмы 2021 [DVDrip, WEB-DLRip, HDrip] (DUB, MVO) [ 750 MB ] Заступник / The Marksman | iTunes | DLRip bober100 Скачать
1 | 0
Фильмы 2021 [DVDrip, WEB-DLRip, HDrip] (DUB, MVO) [ 1.46 GB ] Заступник / The Marksman | iTunes | DLRip bober100 Скачать
2 | 0

28-11-2019 20:33  


Отключить вcю реклaмy на сайте, в т.ч. и в плеере онлайн просмотра!

    Дорогой пользователь! Огромная просьба, поблагодарите релизера, оцените раздачу и оставьте свои комментарий, если Вы скачали Заступник через торрент бесплатно!!
    Комментировать посты могут только пользователи прошедшие не сложную регистрацию
    Показать сообщения:    


    Заступник через торрент
    Скачать бесплатно Заступник
    Заступник скачать торрент
    Заступник смотреть онлайн
    Cкачать фильм Заступник бесплатно
    Заступник скачать торрент в хорошем качестве
    Заступник смотреть онлайн бесплатно в хорошем качестве
    Вы не можете начинать темы
    Вы не можете отвечать на сообщения
    Вы не можете редактировать свои сообщения
    Вы не можете удалять свои сообщения
    Вы не можете голосовать в опросах
    Вы не можете прикреплять файлы к сообщениям
    Вы можете скачивать файлы
    Заступник / The Marksman [2021, Боевик, криминал, триллер, WEB-DLRip-AVC] Дубляж [iTunes] +MVO [HDRezka] смотреть онлайн, скачать торрент picoco.icu