Присоединяйтесь к нам в Telegram!, здесь всегда актуальный адрес сайта, оперативная поддержка и многое другое!!

>

5.9

iTunes

7.4

iTunes

9.4

1 сезон

1

7.4

2 сезон

7.2

iTunes

7.3

1 сезон

13

6.1

iTunes

8.3

Пиратка

30

ULTIMATE

pack

9.9

Лицензия

ВАЖНО

ИГРА 18+

pack

7.3

RePack

MK11

7.7

RePack

jed

7.8

RePack

fifa19

8.5

RePack

RDR2

RePack

NEED FOR SPEED™ PAYBACK

5 сезон

9 сезон

Бесстыжие 9 сезон

Все сериалы

все сериалы на PB.wtf

RePack

FAR CRY 5

Anonymous, доброй ночи, мы катастрофически не успеваем собрать деньги на оплату серверов, помогите нам пожалуйста 5,10,15р., для нас важна любая помощь . В качестве благодарности мы отключим Вам всю рекламу на сайте (укажите свой ник в строку Ваше имя)!

×
  
Magnet ссылка

Заступник / The Marksman (Роберт Лоренц) [2021, боевик, криминал, триллер, WEB-DLRip-AVC] Dub [iTunes] pb.wtf

Заступник через торрент pb.wtf

Раздают: 8 [ 0.1 KB/s ]
Размер: 1.48 GB | Добавлен: 7 мес. назад | Торрент скачан:580 раз
Смотреть онлайн Заступник | Скачать    Ребята, помогите собрать деньги на оплату серверов!!!

20-04-2021 10:54 Заступник Скачать торрент  

Заступник
The Marksman

«Justice comes down to him»

Страна: США
Жанр: боевик, криминал, триллер
Год выпуска: 2021
Продолжительность: 01:47:32

Перевод: Профессиональный (полное дублирование) [iTunes]
Субтитры: русские (полные), английские (форсированные, полные, SDH)
Оригинальная аудиодорожка: английский

Режиссер: Роберт Лоренц / Robert Lorenz

В ролях: Лиам Нисон, Кэтрин Уинник, Хуан Пабло Раба, Тереса Руис, Джейкоб Перес, Гарри Мальдонадо, Альфредо Куирос, Шон А. Розалес, Хосе Л. Васкес, Антонио Лейба

Описание: Джим был лучшим профессиональным снайпером, но теперь он оставил войны позади и ведет уединенную мирную жизнь. Покою приходит конец, когда он решает вступиться за беззащитного мальчика, случайно ставшего свидетелем преступлений могущественного наркокартеля. С этого момента Джиму предстоит в одиночку противостоять киллерам, используя все свои боевые навыки.



Релиз:

Автор рипа: stalkerok
Дорога iTunes от BLUEBIRD

Сэмпл

Качество видео: WEB-DLRip-AVC | Исходник: The.Marksman.2021.1080p.AMZN.WEB-DL.DDP5.1.H.264-EVO
Формат видео: MKV
Видео кодек: AVC
Аудио кодек: AC3, AAC
Видео: AVC, 1398 Кбит/сек, 1102x458 (2.40:1), 23,976 кадр/сек
Аудио №1: AC3, 384 Кбит/сек, 48 КГц, 5.1 - русский
Аудио №2: AAC, 192 Кбит/сек, 48 КГц, 5.1 - английский
---[Information] [20.04.2021 12:59:40] x264 [info]: frame I:1159 Avg QP:16.17 size: 61562
---[Information] [20.04.2021 12:59:40] x264 [info]: frame P:36111 Avg QP:18.17 size: 16182
---[Information] [20.04.2021 12:59:40] x264 [info]: frame B:117338 Avg QP:21.04 size: 4020
---[Information] [20.04.2021 12:59:40] x264 [info]: consecutive B-frames: 2.4% 2.5% 7.8% 40.6% 14.5% 20.8% 3.9% 3.9% 0.8% 0.4% 0.4% 0.6% 0.7% 0.2% 0.6%

General
Unique ID : 118433253512031603007056689352393310600 (0x59196A392E2A514B587B6F091D8F4188)
Complete name : J:\The.Marksman.2021\1\The.Marksman.2021.WEB-DLRip.x264.Rus.Eng.stalkerok.New-Team.mkv
Format : Matroska
Format version : Version 4
File size : 1.48 GiB
Duration : 1 h 47 min
Overall bit rate : 1 976 kb/s
Movie name : The Marksman (2021) | Rip by stalkerok
Encoded date : UTC 2021-04-20 10:23:24
Writing application : mkvmerge v56.1.0 ('My Friend') 64-bit
Writing library : libebml v1.4.2 + libmatroska v1.6.4

Video
ID : 1
Format : AVC
Format/Info : Advanced Video Codec
Format profile : High@L4.1
Format settings : CABAC / 12 Ref Frames
Format settings, CABAC : Yes
Format settings, Reference frames : 12 frames
Codec ID : V_MPEG4/ISO/AVC
Duration : 1 h 47 min
Bit rate : 1 399 kb/s
Width : 1 102 pixels
Height : 458 pixels
Display aspect ratio : 2.40:1
Frame rate mode : Constant
Frame rate : 23.976 (24000/1001) FPS
Color space : YUV
Chroma subsampling : 4:2:0
Bit depth : 8 bits
Scan type : Progressive
Bits/(Pixel*Frame) : 0.116
Stream size : 1.05 GiB (71%)
Title : Rip by stalkerok
Writing library : x264 core 161 r3043+53M 5ab00ad t_mod_New [(8 & 10)-bit@all X86_64]
Encoding settings : cabac=1 / ref=12 / deblock=1:-3:-2 / analyse=0x3:0x133 / me=umh / subme=10 / psy=1 / fade_compensate=0.00 / psy_rd=1.00:0.00 / mixed_ref=1 / me_range=32 / chroma_me=1 / trellis=2 / 8x8dct=1 / cqm=0 / deadzone=21,11 / fast_pskip=0 / chroma_qp_offset=-2 / threads=12 / lookahead_threads=3 / sliced_threads=0 / nr=0 / decimate=1 / interlaced=0 / bluray_compat=0 / constrained_intra=0 / fgo=0 / bframes=14 / b_pyramid=2 / b_adapt=2 / b_bias=0 / direct=3 / weightb=1 / open_gop=0 / weightp=2 / keyint=240 / keyint_min=23 / scenecut=40 / intra_refresh=0 / rc_lookahead=60 / rc=crf / mbtree=0 / crf=19.2000 / qcomp=0.65 / qpmin=0:0:0 / qpmax=69:69:69 / qpstep=4 / vbv_maxrate=50000 / vbv_bufsize=62500 / crf_max=0.0 / nal_hrd=none / filler=0 / ip_ratio=1.40 / pb_ratio=1.30 / aq=3:0.90 / aq-sensitivity=10.00 / aq-factor=1.00:1.00:1.00 / aq2=0 / aq3=0
Default : Yes
Forced : No

Audio #1
ID : 2
Format : AC-3
Format/Info : Audio Coding 3
Commercial name : Dolby Digital
Codec ID : A_AC3
Duration : 1 h 47 min
Bit rate mode : Constant
Bit rate : 384 kb/s
Channel(s) : 6 channels
Channel layout : L R C LFE Ls Rs
Sampling rate : 48.0 kHz
Frame rate : 31.250 FPS (1536 SPF)
Compression mode : Lossy
Stream size : 295 MiB (19%)
Title : iTunes
Language : Russian
Service kind : Complete Main
Default : Yes
Forced : No

Audio #2
ID : 3
Format : AAC LC SBR
Format/Info : Advanced Audio Codec Low Complexity with Spectral Band Replication
Commercial name : HE-AAC
Format settings : Explicit
Codec ID : A_AAC-2
Duration : 1 h 47 min
Bit rate : 192 kb/s
Channel(s) : 6 channels
Channel layout : C L R Ls Rs LFE
Sampling rate : 48.0 kHz
Frame rate : 23.438 FPS (2048 SPF)
Compression mode : Lossy
Delay relative to video : 31 ms
Stream size : 147 MiB (10%)
Language : English
Default : No
Forced : No

Text #1
ID : 4
Format : UTF-8
Codec ID : S_TEXT/UTF8
Codec ID/Info : UTF-8 Plain Text
Duration : 1 h 39 min
Bit rate : 52 b/s
Count of elements : 859
Stream size : 38.4 KiB (0%)
Title : Full
Language : Russian
Default : No
Forced : No

Text #2
ID : 5
Format : UTF-8
Codec ID : S_TEXT/UTF8
Codec ID/Info : UTF-8 Plain Text
Duration : 1 h 37 min
Bit rate : 2 b/s
Count of elements : 109
Stream size : 1.94 KiB (0%)
Title : Forced
Language : English
Default : No
Forced : No

Text #3
ID : 6
Format : UTF-8
Codec ID : S_TEXT/UTF8
Codec ID/Info : UTF-8 Plain Text
Duration : 1 h 40 min
Bit rate : 30 b/s
Count of elements : 899
Stream size : 22.4 KiB (0%)
Title : Full
Language : English
Default : No
Forced : No

Text #4
ID : 7
Format : UTF-8
Codec ID : S_TEXT/UTF8
Codec ID/Info : UTF-8 Plain Text
Duration : 1 h 40 min
Bit rate : 35 b/s
Count of elements : 1034
Stream size : 26.2 KiB (0%)
Title : SDH
Language : English
Default : No
Forced : No

Text #5
ID : 8
Format : UTF-8
Codec ID : S_TEXT/UTF8
Codec ID/Info : UTF-8 Plain Text
Duration : 1 h 44 min
Bit rate : 32 b/s
Count of elements : 1044
Stream size : 25.0 KiB (0%)
Title : SDH AMZN
Language : English
Default : No
Forced : No
pb.wtf



Скачать Заступник через торрент http://i6.imageban.ru/out/2017/09/18/2ff75c0c358795c5946784cc1680714d.png Скачать, смотреть онлайн Заступник бесплантно в хорошем качестве Описание: Джим был лучшим профессиональным снайпером, но теперь он оставил войны позади и ведет уединенную мирную жизнь. Покою приходит ... 9.1 10 14
Info! Золотая раздача, скачанное не засчитывается.
Торрент: Зарегистрирован [2021-04-20 10:54] · скачан: 580 раз
Статус: √ проверено
Размер: 1.48 GB
Как cкачать? Как скачать Заступник через торрент | UTorrent

% Раздел Тема Автор DL S | L
Фильмы (Blu-ray, BD-Remux, HDDVD) [ 25.27 GB ] Заступник / The Marksman [2021 BD Remux 1080p] bober100 Скачать
1 | 0
Фильмы [HD 720p, 1080p] (Хороший звук DUB, MVO) [ 8.4 GB ] Заступник / The Marksman [2021 BDRip 1080p] +MVO [HDRezka Studio] bober100 Скачать
2 | 0
Фильмы [HD 720p, 1080p] (Хороший звук DUB, MVO) [ 3.45 GB ] Заступник / The Marksman [2021 BDRip 720p] +MVO [HDRezka Studio] bober100 Скачать
4 | 0
Фильмы (WEB-DL 720p, 1080p) [ 6.03 GB ] Заступник / The Marksman [2021 WEB-DL 1080p] [AMAZON Version] bober100 Скачать
1 | 0
Фильмы 2021 [DVDrip, WEB-DLRip, HDrip] (DUB, MVO) [ 750 MB ] Заступник / The Marksman [2021 WEB-DLRip] bober100 Скачать
1 | 0
Фильмы 2021 [DVDrip, WEB-DLRip, HDrip] (DUB, MVO) [ 1.96 GB ] Заступник / The Marksman [2021 WEB-DLRip-AVC] +MVO [HDRezka Studio] bober100 Скачать
1 | 0
Фильмы 2021 [DVDrip, WEB-DLRip, HDrip] (DUB, MVO) [ 1.46 GB ] Заступник / The Marksman [2021 WEB-DLRip] bober100 Скачать
1 | 0

28-11-2019 20:33  

Отключить всю рекламу на сайте

    Дорогой пользователь! Огромная просьба, поблагодарите релизера, оцените раздачу и оставьте свои комментарий, если Вы скачали Заступник через торрент бесплатно!
    Комментировать посты могут только пользователи прошедшие не сложную регистрацию
    Показать сообщения:    

    Заступник через торрент
    Скачать бесплатно Заступник
    Заступник скачать торрент
    Заступник смотреть онлайн
    Cкачать фильм Заступник бесплатно
    Заступник скачать торрент в хорошем качестве
    Заступник смотреть онлайн бесплатно в хорошем качестве


    Вы не можете начинать темы
    Вы не можете отвечать на сообщения
    Вы не можете редактировать свои сообщения
    Вы не можете удалять свои сообщения
    Вы не можете голосовать в опросах
    Вы не можете прикреплять файлы к сообщениям
    Вы можете скачивать файлы