Присоединяйтесь к нам в Telegram!, здесь всегда актуальный адрес сайта, оперативная поддержка и многое другое!!

>

5.9

iTunes

7.4

iTunes

9.4

1 сезон

1

7.4

2 сезон

7.2

iTunes

7.3

1 сезон

13

6.1

iTunes

8.3

GOG

30

ULTIMATE

pack

9.9

Лицензия

ВАЖНО

ИГРА 18+

pack

7.3

RePack

MK11

7.7

RePack

jed

7.8

RePack

fifa19

8.5

RePack

RDR2

RePack

NEED FOR SPEED™ PAYBACK

5 сезон

9 сезон

Бесстыжие 9 сезон

Все сериалы

все сериалы на PB.wtf

RePack

FAR CRY 5

Anonymous, доброе утро, мы катастрофически не успеваем собрать деньги на оплату серверов, помогите нам пожалуйста 5,10,15р., для нас важна любая помощь . В качестве благодарности мы отключим Вам всю рекламу на сайте (укажите свой ник в строку Ваше имя)!

×
  
Magnet ссылка

Дальний космос / Stowaway (Джо Пенна) [2021, фантастика, триллер, драма, WEB-DLRip-AVC] DUB [iTunes] от MediaBit pb.wtf

Дальний космос через торрент pb.wtf

Раздают: 2 [ 0 KB/s ]
Размер: 2.05 GB | Добавлен: 7 мес. назад | Торрент скачан:320 раз
Смотреть онлайн Дальний космос | Скачать    Ребята, помогите собрать деньги на оплату серверов!!!

23-04-2021 19:48 Дальний космос Скачать торрент  


Дальний космос / Stowaway
Информация о фильме:
Название: Дальний космос
Оригинальное название: Stowaway
Год выхода: 2021
Жанр: Фантастика, триллер, драма
Режиссер: Джо Пенна

В ролях: Анна Кендрик, Тони Коллетт, Дэниэл Дэ Ким, Шамир Андерсон

Описание: События триллера разворачиваются на космическом корабле, который летит на Марс. Экипаж внезапно обнаруживает лишнего человека на борту, но вернуться на Землю уже нельзя. Так как ресурсы корабля четко ограничены, путь до Марса оказывается под вопросом. Когда большинство уже готово избавиться от «зайца», медик экипажа становится единственной, кто голосует против этого жестокого решения.



Страна: США, Германия
Студия: Augenschein Filmproduktion, MMC Movies, MysteryGuitarMan, Phiphen Pictures, Rainmaker Films, Rise Pictures, Stage 6 Films, XYZ Films, Yale Productions
Продолжительность: 01:56:09
Перевод: Дублированный - iTunes



Информация о файле:
Кодек: AVC
Формат: MKV
Качество: WEB-DLRip-AVC
Видео: MPEG-4 AVC, 1024x436, 23.976 fps, 1917 kbps
Аудио RU: AC3, 6 ch, 48 kHz, 384 kbps
Аудио EN: AC3, 2 ch, 48 kHz, 224 kbps
Субтитры: Русские (Full), английские

General
Unique ID : 219143963429992602105223667399373249644 (0xA4DD9795D7779389E1D717A323BE5C6C)
Complete name : D:uTorrentРипы_от_wolf1245_MediaBitStowaway.2021.DUB.iTunes.WEB-DLRip-AVC.[wolf1245.MediaBit]-.mkv
Format : Matroska
Format version : Version 4
File size : 2.05 GiB
Duration : 1 h 56 min
Overall bit rate : 2 527 kb/s
Movie name : Stowaway.2021.DUB.iTunes.WEB-DLRip-AVC.[wolf1245.MediaBit]
Encoded date : UTC 2021-04-23 19:35:31
Writing application : mkvmerge v56.1.0 ('My Friend') 64-bit
Writing library : libebml v1.4.2 + libmatroska v1.6.4
Video
ID : 1
Format : AVC
Format/Info : Advanced Video Codec
Format profile : High@L4.1
Format settings : CABAC / 12 Ref Frames
Format settings, CABAC : Yes
Format settings, Reference frames : 12 frames
Codec ID : V_MPEG4/ISO/AVC
Duration : 1 h 56 min
Bit rate : 1 917 kb/s
Width : 1 024 pixels
Height : 436 pixels
Display aspect ratio : 2.35:1
Frame rate mode : Constant
Frame rate : 23.976 (24000/1001) FPS
Color space : YUV
Chroma subsampling : 4:2:0
Bit depth : 8 bits
Scan type : Progressive
Bits/(Pixel*Frame) : 0.179
Stream size : 1.56 GiB (76%)
Title : .[wolf1245.MediaBit]
Writing library : x264 core 157 r2958 57baac4
Encoding settings : cabac=1 / ref=12 / deblock=1:0:0 / analyse=0x3:0x133 / me=umh / subme=10 / psy=1 / psy_rd=0.98:0.00 / mixed_ref=1 / me_range=32 / chroma_me=1 / trellis=2 / 8x8dct=1 / cqm=0 / deadzone=21,11 / fast_pskip=1 / chroma_qp_offset=-2 / threads=10 / lookahead_threads=2 / sliced_threads=0 / nr=0 / decimate=1 / interlaced=0 / bluray_compat=0 / constrained_intra=0 / bframes=10 / b_pyramid=2 / b_adapt=2 / b_bias=0 / direct=3 / weightb=1 / open_gop=0 / weightp=2 / keyint=240 / keyint_min=24 / scenecut=40 / intra_refresh=0 / rc_lookahead=60 / rc=2pass / mbtree=1 / bitrate=1917 / ratetol=1.0 / qcomp=0.60 / qpmin=0 / qpmax=69 / qpstep=4 / cplxblur=20.0 / qblur=0.5 / vbv_maxrate=50000 / vbv_bufsize=62500 / nal_hrd=none / filler=0 / ip_ratio=1.40 / aq=1:0.80
Language : English
Default : Yes
Forced : No
Color range : Limited
Color primaries : BT.709
Transfer characteristics : BT.709
Matrix coefficients : BT.709
Audio #1
ID : 2
Format : AC-3
Format/Info : Audio Coding 3
Commercial name : Dolby Digital
Codec ID : A_AC3
Duration : 1 h 56 min
Bit rate mode : Constant
Bit rate : 384 kb/s
Channel(s) : 6 channels
Channel layout : L R C LFE Ls Rs
Sampling rate : 48.0 kHz
Frame rate : 31.250 FPS (1536 SPF)
Bit depth : 32 bits
Compression mode : Lossy
Stream size : 319 MiB (15%)
Title : DUB | iTunes
Language : Russian
Service kind : Complete Main
Default : Yes
Forced : No
Audio #2
ID : 3
Format : AC-3
Format/Info : Audio Coding 3
Commercial name : Dolby Digital
Codec ID : A_AC3
Duration : 1 h 56 min
Bit rate mode : Constant
Bit rate : 224 kb/s
Channel(s) : 2 channels
Channel layout : L R
Sampling rate : 48.0 kHz
Frame rate : 31.250 FPS (1536 SPF)
Bit depth : 32 bits
Compression mode : Lossy
Stream size : 186 MiB (9%)
Title : Original
Language : English
Service kind : Complete Main
Default : No
Forced : No
Text #1
ID : 4
Format : UTF-8
Codec ID : S_TEXT/UTF8
Codec ID/Info : UTF-8 Plain Text
Duration : 1 h 49 min
Bit rate : 65 b/s
Count of elements : 1053
Stream size : 52.5 KiB (0%)
Title : Full
Language : Russian
Default : No
Forced : No
Text #2
ID : 5
Format : UTF-8
Codec ID : S_TEXT/UTF8
Codec ID/Info : UTF-8 Plain Text
Duration : 1 h 46 min
Bit rate : 43 b/s
Count of elements : 997
Stream size : 33.9 KiB (0%)
Title : Full
Language : English
Default : No
Forced : No
Релиз от: &
Автор релиза:
pb.wtf



Скачать Дальний космос через торрент https://i114.fastpic.ru/big/2021/0423/d5/4e206b4e59c2d6c64912972469efd0d5.png Скачать, смотреть онлайн Дальний космос бесплантно в хорошем качестве Описание: События триллера разворачиваются на космическом корабле, который летит на Марс. Экипаж внезапно обнаруживает лишнего человека ... 10 10 3
Торрент: Зарегистрирован [2021-04-23 19:48] · скачан: 320 раз
Статус: √ проверено
Размер: 2.05 GB
Как cкачать? Как скачать Дальний космос через торрент | UTorrent

28-11-2019 20:33  

Отключить всю рекламу на сайте

    Дорогой пользователь! Огромная просьба, поблагодарите релизера, оцените раздачу и оставьте свои комментарий, если Вы скачали Дальний космос через торрент бесплатно!
    Комментировать посты могут только пользователи прошедшие не сложную регистрацию
    Показать сообщения:    

    Дальний космос через торрент
    Скачать бесплатно Дальний космос
    Дальний космос скачать торрент
    Дальний космос смотреть онлайн
    Cкачать фильм Дальний космос бесплатно
    Дальний космос скачать торрент в хорошем качестве
    Дальний космос смотреть онлайн бесплатно в хорошем качестве


    Вы не можете начинать темы
    Вы не можете отвечать на сообщения
    Вы не можете редактировать свои сообщения
    Вы не можете удалять свои сообщения
    Вы не можете голосовать в опросах
    Вы не можете прикреплять файлы к сообщениям
    Вы можете скачивать файлы