1 сезон

1 сезон

iTunes

1

iTunes

Кинопоиск HD

iTunes

13

1 сезон

RePack

30

Deluxe

ВАЖНО

ИГРА 18+

pack

RePack

MK11
pack

Легкие деньги

RePack

jed

RePack

fifa19

RePack

RDR2

RePack

NEED FOR SPEED™ PAYBACK

4 сезон

9 сезон

Бесстыжие 9 сезон

Все сериалы

все сериалы на PB.wtf

RePack

FAR CRY 5
  
Magnet ссылка

Крепкие орешки / Сезон: 1 / Серии: 1-32 из 32 (Арменак Назикян, Сергей Щербин) [2021, Детектив, WEBRip] pb.wtf

Крепкие орешки через торрент pb.wtf

Раздают: 1 [ 17 KB/s ]
Размер: 14.88 GB | Добавлен: 18 д. назад | Торрент скачан:19 раз
Скачать  

24-04-2021 18:48 Крепкие орешки Скачать торрент  

Крепкие орешки
Год выпуска: 2021
Страна: Россия
Студия: "Триикс Медиа
Жанр: Детектив
Продолжительность: ~ 00:37:30
Перевод: Не требуется
Субтитры: отсутствуют

Режиссер: Арменак Назикян, Сергей Щербин



В ролях: Филипп Азаров, Борис Бедросов, Андрей Бабенко, Лайма Зайцева, Олег Абалян, Вячеслав Аркунов, Тадас Шимилёв, Даниил Щипицын, Екатерина Зорина, Мальвина Кожурова, Павел Платонов (младший), Александр Карпухов, Бекарий Цулукидзе, Михаил Касапов, Алексей Нилов, Эдуард Сергиеня, Наталья Мызникова, Элис Дарс, Евгений Карпов, Олег Метелев, Никита Брусов, Дмитрий Гудим, Елена Шаманова, Александра Ильвес, Яна Флоринская, Елизавета Фалилеева, Кристина Козуб, Андрей Погребинский, Тина Тарусина, Артём Цыпин, Родион Рудаков, Виктор Шуралев, Елена Карпова, Александра Селиванова, Вячеслав Гасай, Екатерина Ильина (III), Анастасия Лёвина (III), Василий Рукша, Алина Мурзагалиева, Евгений Тимохин

Описание: Оперуполномоченные УВД по Комендантскому району Петербурга Леонид Лавров и Юрий Романов – полные противоположности друг друга. Романов — примерный семьянин, спортсмен. Лавров — ловелас, завсегдатай самых злачных мест города. Каждая их встреча завершается горячим спором. Начальство уже давно научилось извлекать выгоду из вечных разногласий двух оперов — ведь у каждого из них не только свои взгляды на жизнь, но и свои подходы к оперативно-розыскной деятельности...

Качество: WEBRip
Формат: AVI

Видео: XviD, ~ 1600 Кбит/с, 720x400, 25 кадр/с
Аудио: AC3, 2 ch, 192 Кбит/с
скриншот  скриншот  скриншот  скриншот  скриншот  

General
Complete name : H:\fiiles x\Крепкие орешки.s01.2021.WEB-DLRip.Files-x\01. Крепкие орешки.s01.2021.WEB-DLRip.Files-x.avi
Format : AVI
Format/Info : Audio Video Interleave
File size : 437 MiB
Duration : 33mn 56s
Overall bit rate : 1 802 Kbps
Writing application : VirtualDubMod 1.5.10.3 | www.virtualdub-fr.org || (build 2550/release)
Writing library : VirtualDubMod build 2550/release

Video
ID : 0
Format : MPEG-4 Visual
Format profile : Advanced Simple@L5
Format settings, BVOP : 1
Format settings, QPel : No
Format settings, GMC : No warppoints
Format settings, Matrix : Custom
Codec ID : XVID
Codec ID/Hint : XviD
Duration : 33mn 56s
Bit rate : 1 600 Kbps
Width : 720 pixels
Height : 400 pixels
Display aspect ratio : 16:9
Frame rate : 25.000 fps
Color space : YUV
Chroma subsampling : 4:2:0
Bit depth : 8 bits
Scan type : Progressive
Compression mode : Lossy
Bits/(Pixel*Frame) : 0.222
Stream size : 388 MiB (89%)
Writing library : XviD 73

Audio
ID : 1
Format : AC-3
Format/Info : Audio Coding 3
Mode extension : CM (complete main)
Codec ID : 2000
Duration : 33mn 56s
Bit rate mode : Constant
Bit rate : 192 Kbps
Channel(s) : 2 channels
Channel positions : Front: L R
Sampling rate : 48.0 KHz
Bit depth : 16 bits
Compression mode : Lossy
Stream size : 46.6 MiB (11%)
Alignment : Split accross interleaves
Interleave, duration : 40 ms (1.00 video frame)
Interleave, preload duration : 500 ms

pb.wtf



Скачать Крепкие орешки через торрент https://i114.fastpic.ru/big/2021/0301/bc/8871aaa089b5a336a5e914c4e8df97bc.jpg Скачать фильм Крепкие орешки через торрент бесплантно в хорошем качестве Описание: Оперуполномоченные УВД по Комендантскому району Петербурга Леонид Лавров и Юрий Романов – полные противоположности друг друга. ... 10 10 2
Торрент: Зарегистрирован [2021-04-24 18:48] · скачан: 19 раз
Статус: √ проверено
Размер: 14.88 GB
Как cкачать? Как скачать Крепкие орешки через торрент | UTorrent

% Раздел Тема Автор DL S | L
Наши сериалы [ 14.89 GB ] Крепкие орешки / Сезон: 1 / Серии: 1-32 из 32 [2021 WEBRip-AVC] bober100 Скачать
3 | 0
Наши сериалы [ 16.72 GB ] Крепкие орешки / Сезон: 1 / Серии: 1-32 из 32 [2021 WEBRip 1080p] bober100 Скачать
3 | 0

28-11-2019 20:33  

Отключить всю рекламу на сайте

04-05-2021 08:50 Крепкие орешки Скачать торрент  

дешёвенькоpb.wtf



    Дорогой пользователь! Огромная просьба, поблагодарите релизера, оцените раздачу и оставьте свои комментарий, если Вы скачали Крепкие орешки через торрент бесплатно! Внесите свою лепту в развитие PiratBit!
    Комментировать посты могут только пользователи прошедшие не сложную регистрацию
    Показать сообщения:    

    Крепкие орешки через торрент
    Скачать бесплатно Крепкие орешки
    Крепкие орешки скачать торрент
    Крепкие орешки смотреть онлайн
    Cкачать фильм Крепкие орешки бесплатно
    Крепкие орешки скачать торрент в хорошем качестве
    Крепкие орешки смотреть онлайн бесплатно в хорошем качестве


    Вы не можете начинать темы
    Вы не можете отвечать на сообщения
    Вы не можете редактировать свои сообщения
    Вы не можете удалять свои сообщения
    Вы не можете голосовать в опросах
    Вы не можете прикреплять файлы к сообщениям
    Вы можете скачивать файлы