Всегда рабочее зеркало без VPN и Proxy просто перед .vidak.icu напиши любое слово или цифру, Пример http://26n8.vidak.icu

MVO

2 сезон

2 сезон

1

1 сезон

iTunes

2 сезон

13

1 сезон

Распродажа

pack

Рекомендуем

Пиратка

30

ВАЖНО

RePack

MK11

RePack

jed

RePack

fifa19

RePack

RDR2

RePack

NEED FOR SPEED™ PAYBACK

Кинопоиск HD

6 сезон

 Острые козырьки 6 сезон

Все сериалы

все сериалы на PB.wtf

RePack

FAR CRY 5

Anonymous, нам критически не хватает 5601 руб. на оплату серверов и переферии за Апрель, помоги нам пожалуйста, вся надежда только на тебя. В благодарность мы отключим тебе всю рекламу на сайте!

×
  
Magnet ссылка

Мортал Комбат / Mortal Kombat (Саймон Маккуойд) [2021, Боевик, фэнтези, фантастика, BDRip 720p] DUB [Пифагор] pb.wtf

Мортал Комбат через торрент pb.wtf

Размер: 5.22 GB | Добавлен: 10 мес. назад | Торрент скачан:132 раза
Смотреть онлайн Мортал Комбат | Скачать    Ребята, помогите собрать деньги на оплату серверов!!!

25-04-2021 06:57 Мортал Комбат Скачать торрент  

Мортал Комбат | Mortal Kombat
Год выпуска: 2021
Страна: Австралия, США
Студия: New Line Cinema, NetherRealm Studios, Atomic Monster
Жанр: Боевик, фэнтези, фантастика
Продолжительность: 01:50:03
Перевод: Дублированный | Пифагор
Субтитры: Русские (Forced, full), английские

Режиссер: Саймон Маккуойд

rating

В ролях: Льюис Тан, Джо Таслим, Джессика МакНэми, Джош Лоусон, Мехкад Брукс, Матильда Кимбер, Лора Брент, Таданобу Асано, Хироюки Санада, Чинь Хань

Описание: Боец смешанных единоборств Коул Янг не раз соглашался проиграть за деньги. Он не знает о своем наследии и почему император Внешнего Мира Шан Цзун посылает своего лучшего воина, могущественного криомансера Саб-Зиро, на охоту за Коулом. Янг боится за безопасность своей семьи, и майор спецназа Джакс, обладатель такой же отметки в виде дракона, как и у Коула, советует ему отправиться на поиски Сони Блейд. Вскоре он оказывается в храме Лорда Рейдена, Старшего Бога и защитника Земного Царства, который дает убежище тем, кто носит метку. Здесь Коул тренируется с опытными воинами Лю Каном, Кун Лао и наемником-изгоем Кано, готовясь вместе с величайшими чемпионами Земли противостоять врагам из Внешнего Мира в битве за вселенную. Но сможет ли Коул приложить все усилия и раскрыть в себе аркану — могущественную силу его души, чтобы не только спасти свою семью, но и остановить Внешний Мир раз и навсегда?

Качество: BDRip 720p
Формат: MKV

Видео: MPEG-4 AVC, 1280x536, 5953 Кbit/s, 23.976 fps
Аудио #01: 48 kHz, AC3, 5.1, 384 Kbps | Дублированный | RUS |
Аудио #02: 48 kHz, AC3, 5.1, 448 Kbps | Оригинал | ENG |
скриншот  скриншот  скриншот  скриншот  скриншот  

General
Unique ID : 152611525619887617457673827901227508461 (0x72CFE923F66EB748A170A5E4648DA2ED)
Complete name : F:VideoMortal.Kombat.2021.BDRip.720p.seleZen.mkv
Format : Matroska
Format version : Version 4
File size : 5.22 GiB
Duration : 1 h 50 min
Overall bit rate : 6 787 kb/s
Movie name : Mortal Kombat 2021 from seleZen
Encoded date : UTC 2021-07-02 18:32:07
Writing application : mkvmerge v55.0.0 ('Waiting For Space') 64-bit
Writing library : libebml v1.4.2 + libmatroska v1.6.4

Video
ID : 1
Format : AVC
Format/Info : Advanced Video Codec
Format profile : High@L4.1
Format settings : CABAC / 12 Ref Frames
Format settings, CABAC : Yes
Format settings, Reference : 12 frames
Codec ID : V_MPEG4/ISO/AVC
Duration : 1 h 50 min
Bit rate : 5 953 kb/s
Width : 1 280 pixels
Height : 536 pixels
Display aspect ratio : 2.40:1
Frame rate mode : Constant
Frame rate : 23.976 (24000/1001) FPS
Color space : YUV
Chroma subsampling : 4:2:0
Bit depth : 8 bits
Scan type : Progressive
Bits/(Pixel*Frame) : 0.362
Stream size : 4.58 GiB (88%)
Writing library : x264 core 161 -from seleZen
Encoding settings : cabac=1 / ref=12 / deblock=1:-2:-2 / analyse=0x3:0x133 / me=umh / subme=10 / psy=1 / psy_rd=1.05:0.05 / mixed_ref=1 / me_range=32 / chroma_me=1 / trellis=2 / 8x8dct=1 / cqm=0 / deadzone=21,11 / fast_pskip=0 / chroma_qp_offset=-3 / threads=17 / lookahead_threads=2 / sliced_threads=0 / nr=0 / decimate=0 / interlaced=0 / bluray_compat=0 / constrained_intra=0 / bframes=9 / b_pyramid=2 / b_adapt=2 / b_bias=0 / direct=3 / weightb=1 / open_gop=0 / weightp=2 / keyint=240 / keyint_min=23 / scenecut=40 / intra_refresh=0 / rc_lookahead=40 / rc=crf / mbtree=0 / crf=16.8 / qcomp=0.60 / qpmin=0 / qpmax=51 / qpstep=4 / vbv_maxrate=50000 / vbv_bufsize=62000 / crf_max=0.0 / nal_hrd=none / filler=0 / ip_ratio=1.40 / pb_ratio=1.30 / aq=3:0.80
Language : English
Default : Yes
Forced : No

Audio #1
ID : 2
Format : AC-3
Format/Info : Audio Coding 3
Commercial name : Dolby Digital
Codec ID : A_AC3
Duration : 1 h 50 min
Bit rate mode : Constant
Bit rate : 384 kb/s
Channel(s) : 6 channels
Channel layout : L R C LFE Ls Rs
Sampling rate : 48.0 kHz
Frame rate : 31.250 FPS (1536 SPF)
Compression mode : Lossy
Stream size : 302 MiB (6%)
Title : Dub
Language : Russian
Service kind : Complete Main
Default : Yes
Forced : Yes

Audio #2
ID : 3
Format : AC-3
Format/Info : Audio Coding 3
Commercial name : Dolby Digital
Format settings : Dolby Surround EX
Codec ID : A_AC3
Duration : 1 h 50 min
Bit rate mode : Constant
Bit rate : 448 kb/s
Channel(s) : 6 channels
Channel layout : L R C LFE Ls Rs
Sampling rate : 48.0 kHz
Frame rate : 31.250 FPS (1536 SPF)
Compression mode : Lossy
Stream size : 353 MiB (7%)
Title : Original
Language : English
Service kind : Complete Main
Default : No
Forced : No

Text #1
ID : 4
Format : UTF-8
Codec ID : S_TEXT/UTF8
Codec ID/Info : UTF-8 Plain Text
Duration : 1 h 37 min
Bit rate : 3 b/s
Count of elements : 56
Stream size : 2.48 KiB (0%)
Title : Forced
Language : Russian
Default : Yes
Forced : Yes

Text #2
ID : 5
Format : UTF-8
Codec ID : S_TEXT/UTF8
Codec ID/Info : UTF-8 Plain Text
Duration : 1 h 37 min
Bit rate : 63 b/s
Count of elements : 970
Stream size : 45.5 KiB (0%)
Title : Full
Language : Russian
Default : No
Forced : No

Text #3
ID : 6
Format : UTF-8
Codec ID : S_TEXT/UTF8
Codec ID/Info : UTF-8 Plain Text
Duration : 1 h 25 min
Bit rate : 41 b/s
Count of elements : 947
Stream size : 25.8 KiB (0%)
Title : Full
Language : English
Default : No
Forced : No

Menu
00:00:00.000 : en:Chapter 01
00:02:34.863 : en:Chapter 02
00:07:25.403 : en:Chapter 03
00:12:53.773 : en:Chapter 04
00:19:13.569 : en:Chapter 05
00:27:24.893 : en:Chapter 06
00:34:47.669 : en:Chapter 07
00:42:14.073 : en:Chapter 08
00:47:39.607 : en:Chapter 09
00:56:39.605 : en:Chapter 10
01:05:49.571 : en:Chapter 11
01:13:04.213 : en:Chapter 12
01:19:23.258 : en:Chapter 13
01:27:17.774 : en:Chapter 14
01:35:45.031 : en:Chapter 15
01:38:58.933 : en:Chapter 16

pb.wtf



Скачать Мортал Комбат через торрент https://b.radikal.ru/b25/2107/f3/a2252a433e53.jpg Скачать, смотреть онлайн Мортал Комбат бесплантно в хорошем качестве Описание: Боец смешанных единоборств Коул Янг не раз соглашался проиграть за деньги. Он не знает о своем наследии и почему император ... 9.2 10 41
Торрент: Зарегистрирован [2021-07-06 13:16] · скачан: 132 раз
Статус: √ проверено
Размер: 5.22 GB
Как cкачать? Как скачать Мортал Комбат через торрент | UTorrent

% Раздел Тема Автор DL S | L
Зарубежные Мультфильмы (BDRip 1080p, 720p, Blu-ray, BD-Remux) [ 6.19 GB ] Легенды Мортал комбат: Битва миров / Легенды «Смертельной битвы»: Битва королевств / Mortal Kombat Legends: Battle of the Realms [2021 Мультфильм BDRip 1080p] DUB [Кинопоиск HD] bober100 Скачать
5 | 1
Ultra HD (UHD: 2K, 4K, 8K) [ 30.71 GB ] Легенды Мортал комбат: Битва миров / Легенды «Смертельной битвы»: Битва королевств / Mortal Kombat Legends: Battle of the Realms [2021 Мультфильм UHD BDRemux 2160p] DUB [Кинопоиск HD] bober100 Скачать
1 | 0
Фильмы [HD 720p, 1080p] (Хороший звук DUB, MVO) [ 8.6 GB ] Мортал Комбат / Mortal Kombat [2021 BDRip 1080p] DUB [Пифагор] bober100 Скачать
2 | 0
Ultra HD (UHD: 2K, 4K, 8K) — видео сверхвысокой чёткости [ 51.53 GB ] Мортал Комбат / Mortal Kombat [2021 UHD BDRemux 2160p] DUB [Пифагор] +MVO [HDRezka Studio] +3xAVO bober100 Скачать
2 | 0
Фильмы 2021 [DVDrip, WEB-DLRip, HDrip] (DUB, MVO) [ 2.18 GB ] Мортал Комбат / Mortal Kombat [2021 BDRip] MVO [HDRezka Studio] Twi7ter Скачать
9 | 0
Фильмы 2021 [DVDrip, WEB-DLRip, HDrip] (DUB, MVO) [ 2.13 GB ] Мортал Комбат / Mortal Kombat [2021 BDRip] - [КиноПоиск HD] Twi7ter Скачать
23 | 0
Фильмы (HD 720p, 1080p) (48-60 fps) [ 3.72 GB ] Мортал Комбат / Mortal Kombat [2021 WEB-DLRip 720p / 60 FPS ] от R.G. HD-Films slaventi-69 Скачать
2 | 0


Последний раз редактировалось: bober100 (2021-07-06 13:16), всего редактировалось 2 раз(а)

28-11-2019 20:33  

Отключить всю рекламу на сайте

25-04-2021 22:16 Мортал Комбат Скачать торрент  

ну и хрень. дерьмище фильмpb.wtf



28-04-2021 18:07 Мортал Комбат Скачать торрент  

думал откуда я это лицо скорпиона знаю? и тут вспомнил. Ему джеки чан люлей дал в час пик 3pb.wtf



02-07-2021 08:44 Мортал Комбат Скачать торрент  

Я ожидал большегоpb.wtf



02-07-2021 09:35 Мортал Комбат Скачать торрент  

Редкий кусок гомна. Лучше это время потратить на пересмотр нормального старого фильма. А не этой пародии на фильм. Чуть в кинотеатр на это уродство не пошел.pb.wtf



03-07-2021 14:58 Мортал Комбат Скачать торрент  

1-я часть просто бомба.
а это недоразумение)pb.wtf



03-07-2021 14:58 Мортал Комбат Скачать торрент  

1-я часть просто бомба.
а это недоразумение)pb.wtf



04-07-2021 05:34 Мортал Комбат Скачать торрент  

как такое вообще можно снять даже досматривать не стал время жалко на этот шлак pb.wtf



    Дорогой пользователь! Огромная просьба, поблагодарите релизера, оцените раздачу и оставьте свои комментарий, если Вы скачали Мортал Комбат через торрент бесплатно!
    Комментировать посты могут только пользователи прошедшие не сложную регистрацию
    Показать сообщения:    

    Мортал Комбат через торрент
    Скачать бесплатно Мортал Комбат
    Мортал Комбат скачать торрент
    Мортал Комбат смотреть онлайн
    Cкачать фильм Мортал Комбат бесплатно
    Мортал Комбат скачать торрент в хорошем качестве
    Мортал Комбат смотреть онлайн бесплатно в хорошем качестве


    Вы не можете начинать темы
    Вы не можете отвечать на сообщения
    Вы не можете редактировать свои сообщения
    Вы не можете удалять свои сообщения
    Вы не можете голосовать в опросах
    Вы не можете прикреплять файлы к сообщениям
    Вы можете скачивать файлы