1 сезон

1 сезон

iTunes

1

iTunes

Кинопоиск HD

iTunes

13

1 сезон

RePack

30

Deluxe

ВАЖНО

ИГРА 18+

pack

RePack

MK11
pack

Легкие деньги

RePack

jed

RePack

fifa19

RePack

RDR2

RePack

NEED FOR SPEED™ PAYBACK

4 сезон

9 сезон

Бесстыжие 9 сезон

Все сериалы

все сериалы на PB.wtf

RePack

FAR CRY 5
  
Magnet ссылка

Любовь, свадьбы и прочие катастрофы / Love, Weddings & Other Disasters (Деннис Дуган) [2020, Мелодрама, комедия, HDRip-AVC] DUB [iTunes] от MediaBit pb.wtf

Любовь, свадьбы и прочие катастрофы через торрент pb.wtf

Раздают: 5 [ 257 KB/s ]
Размер: 2.05 GB | Добавлен: 16 д. назад | Торрент скачан:36 раз
Скачать  

27-04-2021 18:48 Любовь, свадьбы и прочие катастрофы Скачать торрент  


Любовь, свадьбы и прочие катастрофы / Love, Weddings & Other Disasters
Информация о фильме:
Название: Любовь, свадьбы и прочие катастрофы
Оригинальное название: Love, Weddings & Other Disasters
Год выхода: 2020
Жанр: Мелодрама, комедия
Режиссер: Деннис Дуган
В ролях: Мэгги Грэйс, Дайан Китон, Джереми Айронс, Дастин Такер, Брэндон Скейлс, Диего Бонета, Тодд Стэшвик, Деннис Дуган, Джесси МакКартни, Чандра Уэст

Описание: Романтическая комедия о работниках свадебного бизнеса, которые ответственны за то, чтобы самый важный день в жизни влюбленных прошел идеально. Правда, жизнь и отношения самих героев порой очень далеки от идеала.



Страна: США
Студия: Align, Construction Film, Convergent Media., Fortitude International
Продолжительность: 01:36:35
Перевод: Дублированный - iTunes



Информация о файле:
Кодек: AVC
Формат: MKV
Качество: HDRip-AVC
Видео: MPEG-4 AVC, 1024x554, 23.976 fps, 2204 kbps
Аудио RU: AC3, 6 ch, 48 kHz, 384 kbps
Аудио EN: AC3, 6 ch, 48 kHz, 448 kbps
Субтитры: Английские
Навигация по главам: Да

x264 info: frame I:1419 Avg QP:14.45 size: 88508
x264 info: frame P:31809 Avg QP:17.60 size: 26086
x264 info: frame B:105732 Avg QP:20.49 size: 5801
General
Unique ID : 300689955856364325099992238524415889417 (0xE236C76C48924B2E53258A6B15105009)
Complete name : D:uTorrentРипы_от_wolf1245_MediaBitLove.Weddings.and.Other.Disasters.2020.DUB.iTunes.HDRip-AVC.[wolf1245.MediaBit].mkv
Format : Matroska
Format version : Version 4
File size : 2.05 GiB
Duration : 1 h 36 min
Overall bit rate : 3 039 kb/s
Movie name : Love.Weddings.and.Other.Disasters.2020.DUB.iTunes.HDRip-AVC.[wolf1245.MediaBit]
Encoded date : UTC 2021-04-27 18:33:39
Writing application : mkvmerge v56.1.0 ('My Friend') 64-bit
Writing library : libebml v1.4.2 + libmatroska v1.6.4
Video
ID : 1
Format : AVC
Format/Info : Advanced Video Codec
Format profile : High@L4.1
Format settings : CABAC / 14 Ref Frames
Format settings, CABAC : Yes
Format settings, Reference frames : 14 frames
Codec ID : V_MPEG4/ISO/AVC
Duration : 1 h 36 min
Bit rate : 2 204 kb/s
Width : 1 024 pixels
Height : 554 pixels
Display aspect ratio : 1.85:1
Frame rate mode : Constant
Frame rate : 23.976 (24000/1001) FPS
Color space : YUV
Chroma subsampling : 4:2:0
Bit depth : 8 bits
Scan type : Progressive
Bits/(Pixel*Frame) : 0.162
Stream size : 1.49 GiB (73%)
Title : .[wolf1245.MediaBit]
Writing library : x264 core 157 r2958 57baac4
Encoding settings : cabac=1 / ref=14 / deblock=1:-3:-2 / analyse=0x3:0x133 / me=umh / subme=11 / psy=1 / psy_rd=1.00:0.05 / mixed_ref=1 / me_range=48 / chroma_me=1 / trellis=2 / 8x8dct=1 / cqm=0 / deadzone=21,11 / fast_pskip=1 / chroma_qp_offset=-3 / threads=10 / lookahead_threads=2 / sliced_threads=0 / nr=0 / decimate=1 / interlaced=0 / bluray_compat=0 / constrained_intra=0 / bframes=12 / b_pyramid=2 / b_adapt=2 / b_bias=0 / direct=3 / weightb=1 / open_gop=0 / weightp=2 / keyint=240 / keyint_min=24 / scenecut=40 / intra_refresh=0 / rc_lookahead=100 / rc=2pass / mbtree=1 / bitrate=2204 / ratetol=1.0 / qcomp=0.60 / qpmin=0 / qpmax=69 / qpstep=4 / cplxblur=20.0 / qblur=0.5 / vbv_maxrate=50000 / vbv_bufsize=62500 / nal_hrd=none / filler=0 / ip_ratio=1.40 / aq=1:0.80
Language : English
Default : Yes
Forced : No
Color range : Limited
Color primaries : BT.709
Transfer characteristics : BT.709
Matrix coefficients : BT.709
Audio #1
ID : 2
Format : AC-3
Format/Info : Audio Coding 3
Commercial name : Dolby Digital
Codec ID : A_AC3
Duration : 1 h 36 min
Bit rate mode : Constant
Bit rate : 384 kb/s
Channel(s) : 6 channels
Channel layout : L R C LFE Ls Rs
Sampling rate : 48.0 kHz
Frame rate : 31.250 FPS (1536 SPF)
Bit depth : 32 bits
Compression mode : Lossy
Stream size : 265 MiB (13%)
Title : DUB | iTunes
Language : Russian
Service kind : Complete Main
Default : Yes
Forced : No
Audio #2
ID : 3
Format : AC-3
Format/Info : Audio Coding 3
Commercial name : Dolby Digital
Codec ID : A_AC3
Duration : 1 h 36 min
Bit rate mode : Constant
Bit rate : 448 kb/s
Channel(s) : 6 channels
Channel layout : L R C LFE Ls Rs
Sampling rate : 48.0 kHz
Frame rate : 31.250 FPS (1536 SPF)
Bit depth : 32 bits
Compression mode : Lossy
Stream size : 310 MiB (15%)
Title : Original
Language : English
Service kind : Complete Main
Default : No
Forced : No
Text #1
ID : 4
Format : UTF-8
Codec ID : S_TEXT/UTF8
Codec ID/Info : UTF-8 Plain Text
Duration : 1 h 30 min
Bit rate : 83 b/s
Count of elements : 1610
Stream size : 55.2 KiB (0%)
Title : Full
Language : English
Default : No
Forced : No
Text #2
ID : 5
Format : UTF-8
Codec ID : S_TEXT/UTF8
Codec ID/Info : UTF-8 Plain Text
Duration : 1 h 35 min
Bit rate : 92 b/s
Count of elements : 1892
Stream size : 64.5 KiB (0%)
Title : SDH
Language : English
Default : No
Forced : No
Menu
00:00:00.000 : :Chapter 01
00:04:41.990 : :Chapter 02
00:11:52.003 : :Chapter 03
00:16:55.723 : :Chapter 04
00:23:45.466 : :Chapter 05
00:28:26.038 : :Chapter 06
00:33:54.866 : :Chapter 07
00:40:02.150 : :Chapter 08
00:46:26.158 : :Chapter 09
00:52:29.521 : :Chapter 10
00:58:02.229 : :Chapter 11
01:02:57.440 : :Chapter 12
01:07:13.154 : :Chapter 13
01:12:56.038 : :Chapter 14
01:20:10.014 : :Chapter 15
01:25:55.150 : :Chapter 16
Релиз от: &
Автор релиза:
pb.wtf



Скачать Любовь, свадьбы и прочие катастрофы через торрент https://i114.fastpic.ru/big/2021/0427/e5/8f5532b4432aad3dd54b813e4709e8e5.png Скачать фильм Любовь, свадьбы и прочие катастрофы через торрент бесплантно в хорошем качестве Описание: Романтическая комедия о работниках свадебного бизнеса, которые ответственны за то, чтобы самый важный день в жизни влюбленных ... 10 10 1
Торрент: Зарегистрирован [2021-04-27 18:48] · скачан: 36 раз
Статус: √ проверено
Размер: 2.05 GB
Как cкачать? Как скачать Любовь, свадьбы и прочие катастрофы через торрент | UTorrent

28-11-2019 20:33  

Отключить всю рекламу на сайте


    Дорогой пользователь! Огромная просьба, поблагодарите релизера, оцените раздачу и оставьте свои комментарий, если Вы скачали Любовь, свадьбы и прочие катастрофы через торрент бесплатно! Внесите свою лепту в развитие PiratBit!
    Комментировать посты могут только пользователи прошедшие не сложную регистрацию
    Показать сообщения:    

    Любовь, свадьбы и прочие катастрофы через торрент
    Скачать бесплатно Любовь, свадьбы и прочие катастрофы
    Любовь, свадьбы и прочие катастрофы скачать торрент
    Любовь, свадьбы и прочие катастрофы смотреть онлайн
    Cкачать фильм Любовь, свадьбы и прочие катастрофы бесплатно
    Любовь, свадьбы и прочие катастрофы скачать торрент в хорошем качестве
    Любовь, свадьбы и прочие катастрофы смотреть онлайн бесплатно в хорошем качестве


    Вы не можете начинать темы
    Вы не можете отвечать на сообщения
    Вы не можете редактировать свои сообщения
    Вы не можете удалять свои сообщения
    Вы не можете голосовать в опросах
    Вы не можете прикреплять файлы к сообщениям
    Вы можете скачивать файлы