1 сезон

1 сезон

iTunes

1

iTunes

Кинопоиск HD

iTunes

13

1 сезон

RePack

30

Deluxe

ВАЖНО

ИГРА 18+

pack

RePack

MK11
pack

Легкие деньги

RePack

jed

RePack

fifa19

RePack

RDR2

RePack

NEED FOR SPEED™ PAYBACK

4 сезон

9 сезон

Бесстыжие 9 сезон

Все сериалы

все сериалы на PB.wtf

RePack

FAR CRY 5
  
Magnet ссылка

Немцы / Сезон: 1 / Серии: 1-10 из 10 (Стас Иванов) [2021, Драма, WEBRip 1080p, (Версия 18+)] pb.wtf

Немцы через торрент pb.wtf

Раздают: 3 [ 0 KB/s ] Качают: 1 [ 0 KB/s ]
Размер: 25.19 GB | Добавлен: 8 д. назад | Торрент скачан:19 раз
Скачать  

28-04-2021 04:27 Немцы Скачать торрент  

Немцы
Год выпуска: 2021
Страна: Россия
Выпущено: Всемирные русские студии по заказу телеканала НТВ
Жанр: Драма
Продолжительность: ~ 00:53:00
Субтитры: отсутствуют
Версия 18+. Внимание! Присутствует ненормативная лексика.

Режиссер: Стас Иванов



В ролях: Евгений Коряковский, Анна Завтур, Антон Васильев (III), Дарья Урсуляк, Валерия Ланская, Юлия Марченко, Виталий Коваленко, Алексей Гришин, Владимир Устюгов, Александр Овчинников (II), Джульетта Геринг, Вадим Медведев (II), Андрей Ребенков, Денис Власенко, Максим Стоянов, Евгений Санников, Денис Денисов, Сергей Муравьёв, Екатерина Сёмина, Азиз Бейшеналиев, Владимир Селезнёв (II), Дмитрий Гизбрехт, Дмитрий Блохин, Сергей Генкин, Андрей Фомин (II), Василий Неверов, Татьяна Кузнецова, Анна Дразнина, Николай Денисов, Людмила Титова, Юлия Чепурнова, Илья Семёнов, Карина Рылова, Оксана Костецкая, Владимир Горюшин, Рауф Кубаев, Алдар Когаев, Иван Мамонов, Андрей Курносов, Александр Дедов (II)

Описание: Экранизация одноименного романа писателя Александра Терехова. На журналиста-оппозиционера Антона Эбергарда сваливается множество проблем — он теряет работу, терпит неудачу как писатель, влезает в долги. Антон отчаянно пытается найти деньги и в конце концов идёт работать на своего «врага» — становится пресс-секретарём мэра. Теперь Антону предстоит стать участником множества интриг в борьбе за Влacть в городе. Но сможет ли он окончательно договориться со своей совестью?

Качество: WEBRip 1080p
Формат: MKV

Видео: MPEG-4 AVC, ~ 6144 Кбит/с, 1920x1080
Аудио №1: Русский, AC3, 2 ch, 192 Кбит/с (с цензурой)
Аудио №2: Русский, AC3, 2 ch, 192 Кбит/с (без цензуры, 18+). Внимание! Присутствует ненормативная лексика.
скриншот  скриншот  скриншот  

Общее
Уникальный идентификатор : 246876924412225976574053121956078561293 (0xB9BAC4211EC09856A2267B4C2F0E280D)
Полное имя : E:\Nemcy.2020.WEB-DL.(1080p).Getty\Nemcy.e01.2020.WEB-DL.(1080p).Getty.mkv
Формат : Matroska
Версия формата : Version 4
Размер файла : 2,39 Гбайт
Продолжительность : 52 м. 39 с.
Режим общего битрейта : Постоянный
Общий поток : 6 489 Кбит/сек
Название фильма : Nemcy.e01.2020.WEB-DL.(1080p).Getty
Дата кодирования : UTC 2021-04-27 21:13:33
Программа кодирования : mkvmerge v7.8.0 ('River Man') 32bit built on Mar 27 2015 16:18:02
Библиотека кодирования : libebml v1.3.1 + libmatroska v1.4.2

Видео
Идентификатор : 1
Формат : AVC
Формат/Информация : Advanced Video Codec
Профиль формата : Baseline@L4
Настройки формата : 2 Ref Frames
Параметр CABAC формата : Нет
Параметр RefFrames формата : 2 кадра
Параметр GOP формата : M=1, N=25
Идентификатор кодека : V_MPEG4/ISO/AVC
Продолжительность : 52 м. 39 с.
Вид битрейта : Постоянный
Битрейт : 6 144 Кбит/сек
Ширина : 1 920 пикселей
Высота : 1 080 пикселей
Соотношение сторон : 16:9
Режим частоты кадров : Постоянный
Частота кадров : 25,000 кадров/сек
Цветовое пространство : YUV
Субдискретизация насыщенности : 4:2:0
Битовая глубина : 8 бит
Тип развёртки : Прогрессивная
Бит/(Пиксели*Кадры) : 0.119
Размер потока : 2,24 Гбайт (94%)
Default : Да
Forced : Нет

Аудио #1
Идентификатор : 2
Формат : AC-3
Формат/Информация : Audio Coding 3
Коммерческое название : Dolby Digital
Идентификатор кодека : A_AC3
Продолжительность : 52 м. 39 с.
Вид битрейта : Постоянный
Битрейт : 192 Кбит/сек
Каналы : 2 канала
Channel layout : L R
Частота : 48,0 КГц
Частота кадров : 31,250 кадров/сек (1536 SPF)
Метод сжатия : С потерями
Размер потока : 72,3 Мбайт (3%)
Язык : Russian
Service kind : Complete Main
Default : Да
Forced : Нет

Аудио #2
Идентификатор : 3
Формат : AC-3
Формат/Информация : Audio Coding 3
Коммерческое название : Dolby Digital
Идентификатор кодека : A_AC3
Продолжительность : 52 м. 39 с.
Вид битрейта : Постоянный
Битрейт : 192 Кбит/сек
Каналы : 2 канала
Channel layout : L R
Частота : 48,0 КГц
Частота кадров : 31,250 кадров/сек (1536 SPF)
Метод сжатия : С потерями
Размер потока : 72,3 Мбайт (3%)
Заголовок : 18+
Язык : Russian
Service kind : Complete Main
Default : Нет
Forced : Нет

Внимание! Раздача ведётся путём добавления новых серий; при каждом добавлении создаётся новый торрент.
Чтобы начать докачку новой серии, пользователям необходимо сделать следующее:
1. Остановить скачивание;
2. Удалить старый торрент у себя из клиента (старые серии удалять не надо);
3. Скачать новый торрент и запустить его у себя в клиенте вместо старого, при этом указать клиенту путь в старую папку куда и должно происходить скачивание новых серий. Ваш клиент при этом должен произвести хеширование (проверку) старой папки и будет докачивать только те серии, которых у вас ещё нет. Старые серии при этом не удаляются, а продолжают раздаваться! Eсли вы уже удалили старые серии, то предотвратить повторную закачку старых серий можно, отжав галочку в соответствующих местах при запуске нового торрента.

pb.wtf



Скачать Немцы через торрент https://i114.fastpic.ru/big/2021/0428/18/3b2c1b4962e95493156256e80aa27718.jpg Скачать фильм Немцы через торрент бесплантно в хорошем качестве Описание: Экранизация одноименного романа писателя Александра Терехова. На журналиста-оппозиционера Антона Эбергарда сваливается множество ... 9.3 10 10
Торрент: Зарегистрирован [2021-05-05 16:52] · скачан: 19 раз
Статус: √ проверено
Размер: 25.19 GB
Как cкачать? Как скачать Немцы через торрент | UTorrent

% Раздел Тема Автор DL S | L
Наши сериалы [ 16.3 GB ] Немцы / Сезон: 1 / Серии: 1-10 из 10 [2021 WEBRip 720p ] bober100 Скачать
3 | 0
Наши сериалы [ 6.96 GB ] Немцы / Сезон: 1 / Серии: 1-10 из 10 [2021 WEBRip-AVC ] bober100 Скачать
5 | 0

28-11-2019 20:33  

Отключить всю рекламу на сайте

    Дорогой пользователь! Огромная просьба, поблагодарите релизера, оцените раздачу и оставьте свои комментарий, если Вы скачали Немцы через торрент бесплатно! Внесите свою лепту в развитие PiratBit!
    Комментировать посты могут только пользователи прошедшие не сложную регистрацию
    Показать сообщения:    

    Немцы через торрент
    Скачать бесплатно Немцы
    Немцы скачать торрент
    Немцы смотреть онлайн
    Cкачать фильм Немцы бесплатно
    Немцы скачать торрент в хорошем качестве
    Немцы смотреть онлайн бесплатно в хорошем качестве


    Вы не можете начинать темы
    Вы не можете отвечать на сообщения
    Вы не можете редактировать свои сообщения
    Вы не можете удалять свои сообщения
    Вы не можете голосовать в опросах
    Вы не можете прикреплять файлы к сообщениям
    Вы можете скачивать файлы