1 сезон

1 сезон

iTunes

1

iTunes

Кинопоиск HD

iTunes

13

1 сезон

RePack

30

Deluxe

ВАЖНО

ИГРА 18+

pack

RePack

MK11
pack

Легкие деньги

RePack

jed

RePack

fifa19

RePack

RDR2

RePack

NEED FOR SPEED™ PAYBACK

4 сезон

9 сезон

Бесстыжие 9 сезон

Все сериалы

все сериалы на PB.wtf

RePack

FAR CRY 5
  
Magnet ссылка

Двуликий (Лиз и Хелен) / A doppia faccia (Liz et Helen) (Риккардо Фреда) [1969 г., Триллер, Любительский (одноголосый)] BDRip 720p от ExKinoRay pb.wtf

Двуликий через торрент pb.wtf

Раздают: 4 [ 64 KB/s ] Качают: 1 [ 0 KB/s ]
Размер: 4.84 GB | Добавлен: 15 д. назад | Торрент скачан:28 раз
Скачать  

28-04-2021 13:38 Двуликий Скачать торрент  

Двуликий (Лиз и Хелен) / A doppia faccia (Liz et Helen)
Год выпуска: 1969
Страна: Италия, Германия (ФРГ)
Жанр: Триллер
Продолжительность: 01:31:24
Перевод: Любительский (одноголосый)
Субтитры: Русские (full), английские (full, SDH)

Режиссер: Риккардо Фреда

Премьера в мире: 4 июля 1969

rating

В ролях: Клаус Кински, Кристиана Крюгер, Гюнтер Столл, Аннабелла Инконтера, Сидней Чаплин, Барбара Нелли, Маргарет Ли, Элис Арно, Карло Марколино, Лючано Спадони, Игнацио Долче

Описание: Молодой человек в отпуске знакомится с очаровательной богатой женщиной Хелен и без памяти влюбляется в нее. Через некоторое время они женятся. Но вскоре выясняется, что женщина не спит с героем. Причина банальна: Хелен - лесбиянка, но очень любит своего мужа, который является ее единственным наследником. Через некоторое время Хелен погибает при загадочных обстоятельствах. Молодой человек пытается решить загадку таинственной смерти Хелен. Однажды он обнаруживает у себя дома молодую девушку. Кто она? Вскоре герой видит в клубе пленку, на которой его погибшая супруга занимается любовью с другой девушкой. Герою не остается ничего другого, как отправиться на поиски Хелен: живой или мертвой...

Доп. информация: Выпущенный немцами в серии уоллесовских фильмов кинокомпании Rialto блюрей (2021 г.) содержал сокращенную версию фильма, как он шел в немецких кинотеатрах.
Исходник: Ремукс английского BD (2019) с полной версией фильма (Спасибо Poupee)
Русская дорожка взята с DVD
Перевод недостающих мест, доозвучка и синхронизация oar
Т.к. в длинных диалогах переводчик начинает заметно отставать, чтобы не запутаться, какой персонаж что говорит, рекомендую при просмотре включать русские субтитры.

Видео: 7000 Кбит/с, 1280x692, 23.976 кадра/сек
Аудио#1: Русский (AC3, 2 ch, 192 Кбит/с, 48 КГц)
Аудио#2: Итальянский (AC3, 1 ch, 192 Кбит/с, 48 КГц)
Аудио#3: Английский (AC3, 1 ch, 192 Кбит/с, 48 КГц)

x264 [info]: profile High, level 4.1
x264 [info]: frame I:696 Avg QP:17.93 size:133684
x264 [info]: frame P:25646 Avg QP:20.38 size: 64444
x264 [info]: frame B:105153 Avg QP:22.09 size: 29028
-----
Общее
Уникальный идентификатор : 220655251741283619863409734508467522277 (0xA600A7DA161D82DB9158606F2F690AE5)
Полное имя : D:\EKR\Doppia.faccia.1969.BDRip720p.ExKinoRay.mkv
Формат : Matroska
Версия формата : Version 2
Размер файла : 4,84 Гбайт
Продолжительность : 1 ч. 31 м.
Общий поток : 7578 Кбит/сек
Дата кодирования : UTC 2021-04-28 12:03:36
Программа кодирования : mkvmerge v7.8.0 ('River Man') 32bit built on Apr 3 2015 12:11:22
Библиотека кодирования : libebml v1.3.1 + libmatroska v1.4.2

Видео
Идентификатор : 1
Формат : AVC
Формат/Информация : Advanced Video Codec
Профиль формата : High@L4.1
Настройки формата : CABAC / 9 Ref Frames
Параметр CABAC формата : Да
Параметр RefFrames формата : 9 кадров
Идентификатор кодека : V_MPEG4/ISO/AVC
Продолжительность : 1 ч. 31 м.
Битрейт : 7000 Кбит/сек
Ширина : 1280 пикселей
Высота : 692 пикселя
Соотношение сторон : 1,85:1
Режим частоты кадров : Постоянный
Частота кадров : 23,976 (24000/1001) кадра/сек
Цветовое пространство : YUV
Субдискретизация насыщенности : 4:2:0
Битовая глубина : 8 бит
Тип развёртки : Прогрессивная
Бит/(Пиксели*Кадры) : 0.330
Размер потока : 4,37 Гбайт (90%)
Библиотека кодирования : x264 core 152 r2851 ba24899
Настройки программы : cabac=1 / ref=9 / deblock=1:-3:-2 / analyse=0x3:0x113 / me=umh / subme=10 / psy=1 / psy_rd=1.00:0.10 / mixed_ref=1 / me_range=32 / chroma_me=1 / trellis=2 / 8x8dct=1 / cqm=0 / deadzone=21,11 / fast_pskip=0 / chroma_qp_offset=-3 / threads=6 / lookahead_threads=1 / sliced_threads=0 / nr=0 / decimate=0 / interlaced=0 / bluray_compat=0 / constrained_intra=0 / bframes=14 / b_pyramid=2 / b_adapt=2 / b_bias=0 / direct=3 / weightb=1 / open_gop=0 / weightp=2 / keyint=240 / keyint_min=23 / scenecut=40 / intra_refresh=0 / rc=2pass / mbtree=0 / bitrate=7000 / ratetol=1.0 / qcomp=0.60 / qpmin=0 / qpmax=69 / qpstep=4 / cplxblur=20.0 / qblur=0.5 / ip_ratio=1.40 / pb_ratio=1.30 / aq=3:1.00
Язык : English
Default : Да
Forced : Нет
Цветовой диапазон : Limited
Основные цвета : BT.709
Характеристики трансфера : BT.709
Коэффициенты матрицы : BT.709

Аудио #1
Идентификатор : 2
Формат : AC-3
Формат/Информация : Audio Coding 3
Коммерческое название : Dolby Digital
Идентификатор кодека : A_AC3
Продолжительность : 1 ч. 31 м.
Вид битрейта : Постоянный
Битрейт : 192 Кбит/сек
Каналы : 2 канала
Channel layout : L R
Частота : 48,0 КГц
Частота кадров : 31,250 кадров/сек (1536 SPF)
Битовая глубина : 16 бит
Метод сжатия : С потерями
Размер потока : 126 Мбайт (3%)
Заголовок : Александр Морозов
Язык : Russian
ServiceKind/String : Complete Main
Default : Да
Forced : Нет

Аудио #2
Идентификатор : 3
Формат : AC-3
Формат/Информация : Audio Coding 3
Коммерческое название : Dolby Digital
Идентификатор кодека : A_AC3
Продолжительность : 1 ч. 31 м.
Вид битрейта : Постоянный
Битрейт : 192 Кбит/сек
Каналы : 1 канал
Channel layout : C
Частота : 48,0 КГц
Частота кадров : 31,250 кадров/сек (1536 SPF)
Битовая глубина : 16 бит
Метод сжатия : С потерями
Размер потока : 126 Мбайт (3%)
Язык : Italian
ServiceKind/String : Complete Main
Default : Нет
Forced : Нет

Аудио #3
Идентификатор : 4
Формат : AC-3
Формат/Информация : Audio Coding 3
Коммерческое название : Dolby Digital
Идентификатор кодека : A_AC3
Продолжительность : 1 ч. 31 м.
Вид битрейта : Постоянный
Битрейт : 192 Кбит/сек
Каналы : 1 канал
Channel layout : C
Частота : 48,0 КГц
Частота кадров : 31,250 кадров/сек (1536 SPF)
Битовая глубина : 16 бит
Метод сжатия : С потерями
Размер потока : 126 Мбайт (3%)
Язык : English
ServiceKind/String : Complete Main
Default : Нет
Forced : Нет

Текст #1
Идентификатор : 5
Формат : UTF-8
Идентификатор кодека : S_TEXT/UTF8
Идентификатор кодека/Информация : UTF-8 Plain Text
Язык : Russian
Default : Нет
Forced : Нет

Текст #2
Идентификатор : 6
Формат : UTF-8
Идентификатор кодека : S_TEXT/UTF8
Идентификатор кодека/Информация : UTF-8 Plain Text
Заголовок : full
Язык : English
Default : Нет
Forced : Нет

Текст #3
Идентификатор : 7
Формат : UTF-8
Идентификатор кодека : S_TEXT/UTF8
Идентификатор кодека/Информация : UTF-8 Plain Text
Заголовок : SDH
Язык : English
Default : Нет
Forced : Нет

Меню
00:00:00.000 : en:Chapter 00
00:08:20.041 : en:Chapter 01
00:15:12.494 : en:Chapter 02
00:20:54.503 : en:Chapter 03
00:31:05.572 : en:Chapter 04
00:37:47.682 : en:Chapter 05
00:45:14.086 : en:Chapter 06
00:52:21.847 : en:Chapter 07
01:01:25.682 : en:Chapter 08
01:09:34.879 : en:Chapter 09
01:15:57.261 : en:Chapter 10
01:24:33.693 : en:Chapter 11

pb.wtf



Скачать Двуликий через торрент http://i99.fastpic.ru/big/2018/0101/ea/ad7727a3758938edf49d5786740d27ea.jpg Скачать фильм Двуликий через торрент бесплантно в хорошем качестве Описание: Молодой человек в отпуске знакомится с очаровательной богатой женщиной Хелен и без памяти влюбляется в нее. Через некоторое время ... 5 10 1
Info! Золотая раздача, скачанное не засчитывается.
Торрент: Зарегистрирован [2021-04-28 13:38] · скачан: 28 раз
Статус: √ проверено
Размер: 4.84 GB
Как cкачать? Как скачать Двуликий через торрент | UTorrent

28-11-2019 20:33  

Отключить всю рекламу на сайте

    Дорогой пользователь! Огромная просьба, поблагодарите релизера, оцените раздачу и оставьте свои комментарий, если Вы скачали Двуликий через торрент бесплатно! Внесите свою лепту в развитие PiratBit!
    Комментировать посты могут только пользователи прошедшие не сложную регистрацию
    Показать сообщения:    

    Двуликий через торрент
    Скачать бесплатно Двуликий
    Двуликий скачать торрент
    Двуликий смотреть онлайн
    Cкачать фильм Двуликий бесплатно
    Двуликий скачать торрент в хорошем качестве
    Двуликий смотреть онлайн бесплатно в хорошем качестве


    Вы не можете начинать темы
    Вы не можете отвечать на сообщения
    Вы не можете редактировать свои сообщения
    Вы не можете удалять свои сообщения
    Вы не можете голосовать в опросах
    Вы не можете прикреплять файлы к сообщениям
    Вы можете скачивать файлы