Достать ножи: Стеклянная луковица

MVO

Добыча

Дубляж

Уэнсдэй

1 сезон

Тор

Дубляж

13 клиническая

1 сезон

Жестокая ночь

MVO

Одни из нас

1 сезон

Deluxe

pack

Рекомендуем

30

Пиратка

ВАЖНО

ВАЖНО

Ghostwire

Пиратка

jed

RePack

nioh2

RePack

RDR2

RePack

NEED FOR SPEED™ PAYBACK

RePack

скачать торрент

Кинопоиск HD

Острые козырьки 6 сезон

6 сезон

FAR CRY 6

RePack

скачать торрент

Лицензия

скачать торрент

MVO

1

1 сезон

скачать торрент

1 сезон

скачать торрент

Лицензия

  

Увиденное и услышанное / Things Heard & Seen (Шари Спрингер Берман, Роберт Пульчини) [2021, Ужасы, триллер, драма, WEB-DLRip-AVC] Дубляж [Netflix] от MediaBit

Увиденное и услышанное через торрент pb.wtf

Размер: 2.05 GB | Добавлен: 1 год 9 мес. назад | Торрент скачан:153 раза
Смотреть онлайн | Скачать | Поддержите нас   

29-04-2021 18:17 Увиденное и услышанное Скачать торрент  


Увиденное и услышанное / Things Heard & Seen
Название: Увиденное и услышанное
Оригинальное название: Things Heard & Seen
Год выхода: 2021
Жанр: Ужасы, триллер, драма
Режиссер: Шари Спрингер Берман, Роберт Пульчини

В ролях: Ри Сихорн, Аманда Сайфред, Наталия Дайер, Карен Аллен, Джеймс Нортон, Ф. Мюррэй Абрахам, Алекс Нюстадтер, Джек Гор, Коттер Смит, Эмили Дорш

Описание: Героиня фильма — молодая художница, которая вместе со своим мужем переезжает из Манхэттена за город. Привыкая к новой жизни, девушка начнает подозревать, что с их домом что-то не так. Его предыдущие владельцы были убиты, и теперь проклятие может настигнуть самих героев.



Страна: США
Студия: Likely Story
Продолжительность: 02:01:26
Перевод: Дублированный - Netflix



Информация о файле:
Кодек: AVC
Формат: MKV
Качество: WEB-DLRip-AVC
Видео: MPEG-4 AVC, 1024x576, 23.976 fps, 1966 kbps
Аудио RU: AC3, 6 ch, 48 kHz, 448 kbps
Субтитры: Русские (Forced, full), английские
Навигация по главам: Да

семпл
x264 info: frame I:1239 Avg QP:10.24 size: 95549
x264 info: frame P:37171 Avg QP:13.97 size: 26498
x264 info: frame B:136324 Avg QP:18.22 size: 5010
x264 info: consecutive B-frames: 2.0% 2.7% 10.6% 9.4% 11.7% 59.9% 1.5% 0.2% 0.1% 0.2% 0.3% 0.2% 1.2%
General
Unique ID : 153945857900560223467369731565413064448 (0x73D0E4CD186AC2B96583E997B37DDF00)
Complete name : D:uTorrentРипы_от_wolf1245_MediaBitThings.Heard.and.Seen.2021.Дубляж.Netflix.WEB-DLRip-AVC.[wolf1245.MediaBit].mkv
Format : Matroska
Format version : Version 4
File size : 2.05 GiB
Duration : 2 h 1 min
Overall bit rate : 2 411 kb/s
Movie name : Things.Heard.and.Seen.2021.Дубляж.Netflix.WEB-DLRip-AVC.[wolf1245.MediaBit]
Encoded date : UTC 2021-04-29 18:06:01
Writing application : mkvmerge v56.1.0 ('My Friend') 64-bit
Writing library : libebml v1.4.2 + libmatroska v1.6.4
Video
ID : 1
Format : AVC
Format/Info : Advanced Video Codec
Format profile : [email protected]
Format settings : CABAC / 14 Ref Frames
Format settings, CABAC : Yes
Format settings, Reference frames : 14 frames
Codec ID : V_MPEG4/ISO/AVC
Duration : 2 h 1 min
Bit rate : 1 966 kb/s
Width : 1 024 pixels
Height : 576 pixels
Display aspect ratio : 16:9
Frame rate mode : Constant
Frame rate : 23.976 (24000/1001) FPS
Color space : YUV
Chroma subsampling : 4:2:0
Bit depth : 8 bits
Scan type : Progressive
Bits/(Pixel*Frame) : 0.139
Stream size : 1.66 GiB (81%)
Title : .[wolf1245.MediaBit]
Writing library : x264 core 157 r2958 57baac4
Encoding settings : cabac=1 / ref=14 / deblock=1:0:0 / analyse=0x3:0x133 / me=umh / subme=10 / psy=1 / psy_rd=0.95:0.00 / mixed_ref=1 / me_range=32 / chroma_me=1 / trellis=2 / 8x8dct=1 / cqm=0 / deadzone=21,11 / fast_pskip=1 / chroma_qp_offset=-2 / threads=10 / lookahead_threads=2 / sliced_threads=0 / nr=0 / decimate=1 / interlaced=0 / bluray_compat=0 / constrained_intra=0 / bframes=12 / b_pyramid=2 / b_adapt=2 / b_bias=0 / direct=3 / weightb=1 / open_gop=0 / weightp=2 / keyint=240 / keyint_min=24 / scenecut=40 / intra_refresh=0 / rc_lookahead=40 / rc=2pass / mbtree=1 / bitrate=1966 / ratetol=1.0 / qcomp=0.60 / qpmin=0 / qpmax=69 / qpstep=4 / cplxblur=20.0 / qblur=0.5 / vbv_maxrate=50000 / vbv_bufsize=62500 / nal_hrd=none / filler=0 / ip_ratio=1.40 / aq=1:0.80
Language : English
Default : Yes
Forced : No
Audio
ID : 2
Format : AC-3
Format/Info : Audio Coding 3
Commercial name : Dolby Digital
Codec ID : A_AC3
Duration : 2 h 1 min
Bit rate mode : Constant
Bit rate : 448 kb/s
Channel(s) : 6 channels
Channel layout : L R C LFE Ls Rs
Sampling rate : 48.0 kHz
Frame rate : 31.250 FPS (1536 SPF)
Bit depth : 32 bits
Compression mode : Lossy
Stream size : 389 MiB (19%)
Title : Дубляж | Netflix
Language : Russian
Service kind : Complete Main
Default : Yes
Forced : No
Text #1
ID : 3
Format : UTF-8
Codec ID : S_TEXT/UTF8
Codec ID/Info : UTF-8 Plain Text
Duration : 1 h 59 min
Bit rate : 1 b/s
Count of elements : 34
Stream size : 1.67 KiB (0%)
Title : Forced
Language : Russian
Default : Yes
Forced : Yes
Text #2
ID : 4
Format : UTF-8
Codec ID : S_TEXT/UTF8
Codec ID/Info : UTF-8 Plain Text
Duration : 1 h 59 min
Bit rate : 81 b/s
Count of elements : 1379
Stream size : 71.3 KiB (0%)
Title : Full
Language : Russian
Default : No
Forced : No
Text #3
ID : 5
Format : UTF-8
Codec ID : S_TEXT/UTF8
Codec ID/Info : UTF-8 Plain Text
Duration : 1 h 57 min
Bit rate : 63 b/s
Count of elements : 1755
Stream size : 54.4 KiB (0%)
Title : English [CC]
Language : English
Default : No
Forced : No
Релиз от: amp; MediaBit




Скачать Увиденное и услышанное через торрент https://i114.fastpic.ru/big/2021/0429/88/554e0b0793753bf4df376025d167d388.png Скачать, смотреть онлайн Увиденное и услышанное бесплантно в хорошем качестве Описание: Героиня фильма — молодая художница, которая вместе со своим мужем переезжает из Манхэттена за город. Привыкая к новой жизни, ... 10 10 5
Торрент: Зарегистрирован [2021-04-29 18:17] · скачан: 153 раз
Статус: √ проверено
Размер: 2.05 GB
Как cкачать? Как скачать Увиденное и услышанное через торрент | UTorrent

28-11-2019 20:33  


Отключить вcю реклaмy на сайте, в т.ч. и в плеере онлайн просмотра!

    Дорогой пользователь! Огромная просьба, поблагодарите релизера, оцените раздачу и оставьте свои комментарий, если Вы скачали Увиденное и услышанное через торрент бесплатно!!
    Комментировать посты могут только пользователи прошедшие не сложную регистрацию
    Показать сообщения:    


    Увиденное и услышанное через торрент
    Скачать бесплатно Увиденное и услышанное
    Увиденное и услышанное скачать торрент
    Увиденное и услышанное смотреть онлайн
    Cкачать фильм Увиденное и услышанное бесплатно
    Увиденное и услышанное скачать торрент в хорошем качестве
    Увиденное и услышанное смотреть онлайн бесплатно в хорошем качестве
    Вы не можете начинать темы
    Вы не можете отвечать на сообщения
    Вы не можете редактировать свои сообщения
    Вы не можете удалять свои сообщения
    Вы не можете голосовать в опросах
    Вы не можете прикреплять файлы к сообщениям
    Вы можете скачивать файлы
    Увиденное и услышанное / Things Heard & Seen [2021, Ужасы, триллер, драма, WEB-DLRip-AVC] Дубляж [Netflix] от MediaBit смотреть онлайн, скачать торрент picoco.icu