1 сезон

1 сезон

iTunes

1

iTunes

Кинопоиск HD

iTunes

13

1 сезон

RePack

30

Deluxe

ВАЖНО

ИГРА 18+

pack

RePack

MK11
pack

Легкие деньги

RePack

jed

RePack

fifa19

RePack

RDR2

RePack

NEED FOR SPEED™ PAYBACK

4 сезон

9 сезон

Бесстыжие 9 сезон

Все сериалы

все сериалы на PB.wtf

RePack

FAR CRY 5
  
Magnet ссылка

От колыбели до могилы / Cradle 2 the Grave (Анджей Бартковяк) [2003 г., боевик, триллер, драма, криминал, WEB-DLRip 720p / 60 FPS, Профессиональный (многоголосый)] (Open Matte) от R.G. HD-Films pb.wtf

От колыбели до могилы через торрент pb.wtf

Раздают: 5 [ 0 KB/s ]
Размер: 4.85 GB | Добавлен: 13 д. назад | Торрент скачан:40 раз
Скачать  

30-04-2021 15:54 От колыбели до могилы Скачать торрент  

От колыбели до могилы / Cradle 2 the Grave
Год выпуска: 2003
Страна: США
Жанр: боевик, триллер, драма, криминал
Продолжительность: 01:41:03
Перевод: Профессиональный (многоголосый закадровый) (R5)
Субтитры: Russian, English

Режиссер: Анджей Бартковяк

Бюджет: $25 000 000
Премьера в мире: 24 февраля 2003

rating

В ролях: Джет Ли (Su), DMX (Anthony Fait), Энтони Андерсон (Tommy), Келли Ху (Sona), Том Арнольд (Archie), Марк Дакаскос (Ling), Гэбриэл Юнион (Daria), Майкл Джейс (Odion), Драг-Он (Miles), Пейдж Херд (Vanessa), Паоло Сеганти (Christophe), Ричард Трапп (Douglas)

Описание: Профессиональный грабитель и секретный агент объединяют свои усилия в борьбе против банды свирепых гангстеров под руководством жестокого мафиози… В центре сюжета — бесценные сокровища — черные алмазы из Тайваня. Сначала их похищает банда чернокожего вора Тони Фейта. Но драгоценности приносят ему лишь неприятности: хозяин камешков, торговец оружием Линг, похищает дочь Фейта и требует вернуть бриллианты.

Только возвращать уже нечего: камни снова украдены, на этот раз бандой местного мафиози Джамба Чемберса. Чтобы вернуть дочь и уцелеть самому, Фейт вынужден объединиться с агентом тайваньской разведки Су, который тоже идет по следу бриллиантов. Дело в том, что черные алмазы — совсем не ювелирные драгоценности…

Качество: WEB-DLRip 720p / 60 FPS
Формат: MKV
Видео кодек: H.264
Аудио кодек: AC3
Видео: x264, 1280 x 720 ( 16:9 ), 6482 kbps, 60,000 fps, ( 0.117 bpp)
Аудио#1: Русский, AC-3, 48.0 KHz, 6 ch, 384 Kbps MVO (R5)
Релиз от: Автор рипа: slaventi-69
x264 [info]: frame I:2341 Avg QP:17.77 size: 74301
x264 [info]: frame P:84004 Avg QP:18.82 size: 25900
x264 [info]: frame B:277451 Avg QP:21.31 size: 9239
x264 [info]: consecutive B-frames: 1.9% 1.9% 8.1% 20.1% 55.4% 12.7%


Общее
Уникальный идентификатор : 327559379696997115880965639865935980221 (0xF66DA44C80A3D9DBF99EAEE774B1E6BD)
Полное имя : F:\60 FPS\Cradle.2.the.Grave.(2003).WEB-DLRip.720p.(60 Fps).(Open Matte).mkv
Формат : Matroska
Версия формата : Version 4
Размер файла : 4,85 Гбайт
Продолжительность : 1 ч. 41 м.
Общий поток : 6870 Кбит/сек
Название фильма : От колыбели до могилы / Cradle 2 the Grave (2003) WEB-DLRip 720p (60 Fps) | Open Matte
Дата кодирования : UTC 2021-04-30 15:06:10
Программа кодирования : mkvmerge v56.1.0 ('My Friend') 32-bit
Библиотека кодирования : libebml v1.4.2 + libmatroska v1.6.4

Видео
Идентификатор : 1
Формат : AVC
Формат/Информация : Advanced Video Codec
Профиль формата : High@L4.1
Настройки формата : CABAC / 8 Ref Frames
Параметр CABAC формата : Да
Параметр RefFrames формата : 8 кадров
Идентификатор кодека : V_MPEG4/ISO/AVC
Продолжительность : 1 ч. 41 м.
Битрейт : 6482 Кбит/сек
Ширина : 1280 пикселей
Высота : 720 пикселей
Соотношение сторон : 16:9
Режим частоты кадров : Постоянный
Частота кадров : 60,000 кадров/сек
Цветовое пространство : YUV
Субдискретизация насыщенности : 4:2:0
Битовая глубина : 8 бит
Тип развёртки : Прогрессивная
Бит/(Пиксели*Кадры) : 0.117
Размер потока : 4,58 Гбайт (94%)
Заголовок : slaventi-69 ( R.G. HD-Films | 60 fps )
Библиотека кодирования : x264 core 130 r2273 b3065e6
Настройки программы : cabac=1 / ref=9 / deblock=1:-1:-1 / analyse=0x3:0x113 / me=umh / subme=9 / psy=1 / psy_rd=1.00:0.00 / mixed_ref=1 / me_range=32 / chroma_me=1 / trellis=2 / 8x8dct=1 / cqm=0 / deadzone=21,11 / fast_pskip=0 / chroma_qp_offset=-2 / threads=10 / lookahead_threads=4 / sliced_threads=0 / nr=0 / decimate=1 / interlaced=0 / bluray_compat=0 / constrained_intra=0 / bframes=5 / b_pyramid=1 / b_adapt=2 / b_bias=0 / direct=2 / weightb=1 / open_gop=0 / weightp=2 / keyint=600 / keyint_min=23 / scenecut=40 / intra_refresh=0 / rc=crf / mbtree=0 / crf=18.0 / qcomp=0.60 / qpmin=0 / qpmax=69 / qpstep=4 / ip_ratio=1.40 / pb_ratio=1.30 / aq=1:1.00
Язык : English
Default : Да
Forced : Нет

Аудио
Идентификатор : 2
Формат : AC-3
Формат/Информация : Audio Coding 3
Коммерческое название : Dolby Digital
Идентификатор кодека : A_AC3
Продолжительность : 1 ч. 41 м.
Вид битрейта : Постоянный
Битрейт : 384 Кбит/сек
Каналы : 6 каналов
Channel layout : L R C LFE Ls Rs
Частота : 48,0 КГц
Частота кадров : 31,250 кадров/сек (1536 SPF)
Битовая глубина : 16 бит
Метод сжатия : С потерями
Размер потока : 278 Мбайт (6%)
Заголовок : MVO (R5)
Язык : Russian
ServiceKind/String : Complete Main
Default : Да
Forced : Нет

Текст #1
Идентификатор : 3
Формат : UTF-8
Идентификатор кодека : S_TEXT/UTF8
Идентификатор кодека/Информация : UTF-8 Plain Text
Продолжительность : 1 ч. 40 м.
Битрейт : 56 бит/сек
ElementCount : 974
Размер потока : 41,7 Кбайт (0%)
Язык : Russian
Default : Нет
Forced : Нет

Текст #2
Идентификатор : 4
Формат : UTF-8
Идентификатор кодека : S_TEXT/UTF8
Идентификатор кодека/Информация : UTF-8 Plain Text
Продолжительность : 1 ч. 39 м.
Битрейт : 50 бит/сек
ElementCount : 1023
Размер потока : 36,8 Кбайт (0%)
Язык : English
Default : Нет
Forced : Нет

Меню
00:00:00.000 : The Heist Is On (Credits; Go to Sleep)
00:04:01.074 : Dropping In
00:06:40.650 : Tommy's Turn
00:09:34.157 : In-Demand Gems
00:13:09.330 : Rapid Transit
00:18:28.107 : Diamond for a Princess
00:23:02.881 : No Deal
00:27:14.800 : Mixed Doubles
00:31:29.930 : Stuck With Each Other
00:35:45.643 : Daughter Worries
00:39:03.424 : Chambers' Chambers (Break Somethin')
00:43:35.530 : Into the Driver's Seat (So Whasup)
00:46:15.940 : Leave it to Archie
00:51:40.139 : Tommy the Bug Man
00:54:34.313 : Sexy Distraction (N***a Please)
00:56:20.294 : Crashing In
00:59:40.285 : Calling #12
01:03:28.763 : Free-Wheeling (X Gon' Give it to Ya)
01:09:40.259 : Escaping and Resting
01:12:07.448 : One Step Behind
01:15:41.370 : Green Light
01:18:40.633 : Break Out the Heat
01:23:23.749 : Big Guns
01:27:21.361 : Fighting Mad
01:30:39.267 : Ring of Fire
01:34:31.875 : Faith
01:36:29.784 : End Credits (Right/Wrong)
01:37:32.346 : Sidekicks

Просьба к переливающим на другие сайты, в оформлении указывайте пожалуйста авторство группы R.G. HD-Films pb.wtf



Скачать От колыбели до могилы через торрент https://b.radikal.ru/b27/2104/5b/aa1b256a7e6b.png Скачать фильм От колыбели до могилы через торрент бесплантно в хорошем качестве Описание: Профессиональный грабитель и секретный агент объединяют свои усилия в борьбе против банды свирепых гангстеров под руководством ... 10 10 5
Info! Золотая раздача, скачанное не засчитывается.
Торрент: Зарегистрирован [2021-04-30 15:54] · скачан: 40 раз
Статус: √ проверено
Размер: 4.85 GB
Как cкачать? Как скачать От колыбели до могилы через торрент | UTorrent

% Раздел Тема Автор DL S | L
Фильмы (HD 720p, 1080p) (48-60 fps) [ 3.58 GB ] От колыбели до могилы / Cradle 2 the Grave [2003 BDRip 720p] 60fps от R.G. HD-Films slaventi-69 Скачать
3 | 0

28-11-2019 20:33  

Отключить всю рекламу на сайте

01-05-2021 09:10 От колыбели до могилы Скачать торрент  

R.I.P. DMXpb.wtf



    Дорогой пользователь! Огромная просьба, поблагодарите релизера, оцените раздачу и оставьте свои комментарий, если Вы скачали От колыбели до могилы через торрент бесплатно! Внесите свою лепту в развитие PiratBit!
    Комментировать посты могут только пользователи прошедшие не сложную регистрацию
    Показать сообщения:    

    От колыбели до могилы через торрент
    Скачать бесплатно От колыбели до могилы
    От колыбели до могилы скачать торрент
    От колыбели до могилы смотреть онлайн
    Cкачать фильм От колыбели до могилы бесплатно
    От колыбели до могилы скачать торрент в хорошем качестве
    От колыбели до могилы смотреть онлайн бесплатно в хорошем качестве


    Вы не можете начинать темы
    Вы не можете отвечать на сообщения
    Вы не можете редактировать свои сообщения
    Вы не можете удалять свои сообщения
    Вы не можете голосовать в опросах
    Вы не можете прикреплять файлы к сообщениям
    Вы можете скачивать файлы