1 сезон

1 сезон

iTunes

1

iTunes

Кинопоиск HD

iTunes

13

1 сезон

RePack

30

Deluxe

ВАЖНО

ИГРА 18+

pack

RePack

MK11
pack

Легкие деньги

RePack

jed

RePack

fifa19

RePack

RDR2

RePack

NEED FOR SPEED™ PAYBACK

4 сезон

9 сезон

Бесстыжие 9 сезон

Все сериалы

все сериалы на PB.wtf

RePack

FAR CRY 5
  
Magnet ссылка

Брюс Ли: Рождение Дракона / Birth of the Dragon (Джордж Нолфи) [2016, боевик, драма, биография, WEB-DLRip - HEVC 1080p 10 bit 60 FPS ,DUB] pb.wtf

Брюс Ли: Рождение Дракона через торрент pb.wtf

Раздают: 11 [ 0 KB/s ]
Размер: 2.62 GB | Добавлен: 13 д. назад | Торрент скачан:72 раза
Скачать  

30-04-2021 18:03 Брюс Ли: Рождение Дракона Скачать торрент  

Birth of the Dragon
«Поединок, ставший легендой»


Год выпуска: 2016
Страна: Китай, Канада, США
Жанр: Боевик, драма, биография

Продолжительность: 01:31:33
Перевод: Профессиональный | iTunes
Субтитры: нет

Режиссер: Джордж Нолфи

В ролях: Филип Нг, Ся Юй, Ван Сиань, Юй Хай, У Юэ, Билли Магнуссен, Стивен Холмс, Райли Вуд, Саймон Инь, Терри Чен

Описание: Важная страница из биографии молодого Брюса Ли – соперничество с мастером кунг-фу Воном Мань, которое вылилось в открытый поединок на улице Сан-Франциско.

Мировая премьера: 13 сентября 2016


Качество: WeB-DLRip 1080p by DD2D3
Формат: MKV
Видео кодек: V_MPEGH/ISO/HEVC
Аудио кодек: AC3
Видео: V_MPEGH/ISO/HEVC;1920x800 (2.40:1); 3703 Kbps; 60 fps;0,040 bpp
Аудио: русский; AC3; 384 Kbps; CBR; 6 ch
Навигация по главам: есть



Общее
Уникальный идентификатор : 172458887615223012363658074097391675732 (0x81BE5FA3292DEDF48321D384CC36A954)
Полное имя : D:\Birth of the Dragon (2016) WEB-DLRip - HEVC 1080p 10 bit 60 FPS.mkv
Формат : Matroska
Версия формата : Version 4
Размер файла : 2,62 Гбайт
Продолжительность : 1 ч. 31 м.
Общий поток : 4 094 Кбит/сек
Название фильма : Rip by from DD2D3
Дата кодирования : UTC 2021-04-30 17:38:28
Программа кодирования : mkvmerge v10.0.0 ('To Drown In You') 32bit
Библиотека кодирования : libebml v1.3.4 + libmatroska v1.4.5
Attachments : poster

Видео
Идентификатор : 1
Формат : HEVC
Формат/Информация : High Efficiency Video Coding
Профиль формата : Main 10@L4.1@Main
Идентификатор кодека : V_MPEGH/ISO/HEVC
Продолжительность : 1 ч. 31 м.
Битрейт : 3 703 Кбит/сек
Ширина : 1 920 пикселей
Высота : 800 пикселей
Соотношение сторон : 2,40:1
Режим частоты кадров : Постоянный
Частота кадров : 60,000 кадров/сек
Цветовое пространство : YUV
Субдискретизация насыщенности : 4:2:0
Битовая глубина : 10 бит
Бит/(Пиксели*Кадры) : 0.040
Размер потока : 2,37 Гбайт (90%)
Библиотека кодирования : x265 2.3+33-0b7d54dbb71a87a0:[Windows][MSVC 1800][64 bit] 10bit: KG7x [x265.ru]
Настройки программы : cpuid=1173503 / frame-threads=2 / numa-pools=4 / wpp / no-pmode / no-pme / no-psnr / no-ssim / log-level=2 / input-csp=1 / input-res=1920x800 / interlace=0 / total-frames=329588 / level-idc=41 / high-tier=1 / uhd-bd=0 / ref=3 / no-allow-non-conformance / no-repeat-headers / annexb / no-aud / no-hrd / info / hash=0 / no-temporal-layers / open-gop / min-keyint=25 / keyint=250 / bframes=4 / b-adapt=2 / b-pyramid / bframe-bias=0 / rc-lookahead=20 / lookahead-slices=5 / scenecut=40 / no-intra-refresh / ctu=64 / min-cu-size=8 / no-rect / no-amp / max-tu-size=32 / tu-inter-depth=1 / tu-intra-depth=1 / limit-tu=0 / rdoq-level=0 / dynamic-rd=0.00 / no-ssim-rd / signhide / no-tskip / nr-intra=0 / nr-inter=0 / no-constrained-intra / strong-intra-smoothing / max-merge=2 / limit-refs=3 / no-limit-modes / me=1 / subme=2 / merange=57 / temporal-mvp / weightp / no-weightb / no-analyze-src-pics / deblock=0:0 / sao / no-sao-non-deblock / rd=3 / no-early-skip / rskip / no-fast-intra / no-tskip-fast / no-cu-lossless / no-b-intra / rdpenalty=0 / psy-rd=2.00 / psy-rdoq=0.00 / no-rd-refine / analysis-mode=0 / no-lossless / cbqpoffs=0 / crqpoffs=0 / rc=abr / bitrate=3700 / qcomp=0.60 / qpstep=4 / stats-write=0 / stats-read=2 / cplxblur=20.0 / qblur=0.5 / ipratio=1.40 / pbratio=1.30 / aq-mode=1 / aq-strength=1.00 / cutree / zone-count=0 / no-strict-cbr / qg-size=32 / no-rc-grain / qpmax=69 / qpmin=0 / sar=1 / overscan=0 / videoformat=5 / range=0 / colorprim=2 / transfer=2 / colormatrix=2 / chromaloc=0 / display-window=0 / max-cll=0,0 / min-luma=0 / max-luma=1023 / log2-max-poc-lsb=8 / vui-timing-info / vui-hrd-info / slices=1 / opt-qp-pps / opt-ref-list-length-pps / no-multi-pass-opt-rps / scenecut-bias=0.05 / no-opt-cu-delta-qp / no-aq-motion / no-hdr / no-hdr-opt / refine-level=5 / no-limit-sao
Default : Да
Forced : Нет

Аудио
Идентификатор : 2
Формат : AC-3
Формат/Информация : Audio Coding 3
Коммерческое название : Dolby Digital
Идентификатор кодека : A_AC3
Продолжительность : 1 ч. 31 м.
Вид битрейта : Постоянный
Битрейт : 384 Кбит/сек
Каналы : 6 каналов
Channel layout : L R C LFE Ls Rs
Частота : 48,0 КГц
Частота кадров : 31,250 кадров/сек (1536 SPF)
Метод сжатия : С потерями
Размер потока : 251 Мбайт (9%)
Язык : Russian
Service kind : Complete Main
Default : Да
Forced : Нет

Меню
00:00:00.000 : en:Глава 1
00:03:36.880 : en:Глава 2
00:09:06.200 : en:Глава 3
00:13:36.840 : en:Глава 4
00:17:02.440 : en:Глава 5
00:22:52.720 : en:Глава 6
00:29:19.120 : en:Глава 7
00:37:04.280 : en:Глава 8
00:43:09.040 : en:Глава 9
00:51:32.480 : en:Глава 10
00:57:29.320 : en:Глава 11
01:06:07.640 : en:Глава 12
01:12:27.600 : en:Глава 13
01:21:29.760 : en:Глава 14


скриншот  скриншот  скриншот  скриншот  


pb.wtf



Скачать Брюс Ли: Рождение Дракона через торрент https://funkyimg.com/i/3bWWq.jpg Скачать фильм Брюс Ли: Рождение Дракона через торрент бесплантно в хорошем качестве Описание: Важная страница из биографии молодого Брюса Ли – соперничество с мастером кунг-фу Воном Мань, которое вылилось в открытый ... 10 10 8
Info! Золотая раздача, скачанное не засчитывается.
Торрент: Зарегистрирован [2021-04-30 18:03] · скачан: 72 раз
Статус: √ проверено
Размер: 2.62 GB
Как cкачать? Как скачать Брюс Ли: Рождение Дракона через торрент | UTorrent

% Раздел Тема Автор DL S | L
Фильмы 2016 [DVDrip, WEB-DLRip, HDrip] (DUB, MVO) [ 1.42 GB ] Брюс Ли: Рождение Дракона / Birth of the Dragon [2016 биография BDRip] - Twi7ter Скачать
1 | 0
Фильмы (WEB-DL 720p, 1080p) [ 3.18 GB ] Брюс Ли: Рождение Дракона / Birth of the Dragon [2016 биография WEB-DL 1080p] killermax2013 Скачать
3 | 0
Фильмы 2016 [DVDrip, WEB-DLRip, HDrip] (DUB, MVO) [ 1.77 GB ] Брюс Ли: Рождение Дракона / Birth of the Dragon [2016 биография HDRip-AVC] bober100 Скачать
1 | 0
Фильмы 2016 [DVDrip, WEB-DLRip, HDrip] (DUB, MVO) [ 745 MB ] Брюс Ли: Рождение Дракона / Birth of the Dragon [2016 биография HDRip] bober100 Скачать
1 | 0

28-11-2019 20:33  

Отключить всю рекламу на сайте

30-04-2021 23:49 Брюс Ли: Рождение Дракона Скачать торрент  


Большое Спасибо dd2d3!!!
Как всегда помогу с раздачей!
Спасибо Друг, что ты есть!

Best Regards, Your V&S!
pb.wtf



01-05-2021 19:44 Брюс Ли: Рождение Дракона Скачать торрент  

Спасибо за качество и размер! Хотелось бы увидеть в вашем исполнении: Дэнни Цепной пес. Пусть и размер будет потяжелее на пару гигов.pb.wtf



    Дорогой пользователь! Огромная просьба, поблагодарите релизера, оцените раздачу и оставьте свои комментарий, если Вы скачали Брюс Ли: Рождение Дракона через торрент бесплатно! Внесите свою лепту в развитие PiratBit!
    Комментировать посты могут только пользователи прошедшие не сложную регистрацию
    Показать сообщения:    

    Брюс Ли: Рождение Дракона через торрент
    Скачать бесплатно Брюс Ли: Рождение Дракона
    Брюс Ли: Рождение Дракона скачать торрент
    Брюс Ли: Рождение Дракона смотреть онлайн
    Cкачать фильм Брюс Ли: Рождение Дракона бесплатно
    Брюс Ли: Рождение Дракона скачать торрент в хорошем качестве
    Брюс Ли: Рождение Дракона смотреть онлайн бесплатно в хорошем качестве


    Вы не можете начинать темы
    Вы не можете отвечать на сообщения
    Вы не можете редактировать свои сообщения
    Вы не можете удалять свои сообщения
    Вы не можете голосовать в опросах
    Вы не можете прикреплять файлы к сообщениям
    Вы можете скачивать файлы