Достать ножи: Стеклянная луковица

MVO

Добыча

Дубляж

Уэнсдэй

1 сезон

Тор

Дубляж

13 клиническая

1 сезон

Жестокая ночь

MVO

Одни из нас

1 сезон

Deluxe

pack

Рекомендуем

30

Пиратка

ВАЖНО

ВАЖНО

Ghostwire

Пиратка

jed

RePack

nioh2

RePack

RDR2

RePack

NEED FOR SPEED™ PAYBACK

RePack

скачать торрент

Кинопоиск HD

Острые козырьки 6 сезон

6 сезон

FAR CRY 6

RePack

скачать торрент

Лицензия

скачать торрент

MVO

1

1 сезон

скачать торрент

1 сезон

скачать торрент

Лицензия

  

Без жалости / Without Remorse (Стефано Соллима) [2021, Боевик, приключения, триллер, WEB-DLRip-AVC] MVO [HDRezka] от MediaBit

Без жалости через торрент pb.wtf

Размер: 2.34 GB | Добавлен: 1 год 8 мес. назад | Торрент скачан:231 раз
Смотреть онлайн | Скачать | Поддержите нас   

01-05-2021 06:06 Без жалости Скачать торрент  


Без жалости / Without Remorse
Название: Без жалости
Оригинальное название: Without Remorse
Год выхода: 2021
Жанр: Боевик, приключения, триллер
Режиссер: Стефано Соллима

В ролях: Майкл Б. Джордан, Джоди Тёрнер-Смит, Джейми Белл, Гай Пирс, Лорен Лондон, Джейкоб Скипио, Тодд Ласанс, Джек Кеси, Люси Расселл, Кэм Жиганде

Описание: Джон Келли не раз отправлялся в смертельно опасные командировки во вьетнамские джунгли, но его главный враг оказался совсем рядом, на улицах родных американских городов. «Морской котик», потерявший и вновь обретший свою любовь, готов защищать ее всеми доступными средствами, пусть даже перед лицом гораздо более могущественного и многочисленного противника — наркомафии. И Келли начинает свою войну без всякой надежды на победу.



Страна: США
Студия: Paramount Pictures, Amazon Studios, Skydance Productions, New Republic Pictures, Weed Road Pictures
Продолжительность: 01:49:15
Перевод: Профессиональный (многоголосый, закадровый) - HDRezka



Информация о файле:
Кодек: AVC
Формат: MKV
Качество: WEB-DLRip-AVC
Видео: MPEG-4 AVC, 1024x428, 23,976 fps, 1788 kbps
Аудио RU: AC3, 6 ch, 48 kHz, 448 kbps
Аудио EN: AC3, 6 ch, 48 kHz, 448 kbps
Аудио UKR: AC3, 6 ch, 48 kHz, 384 kbps
Субтитры: Русские (Forced, Full), украинские (Forced), английские (Forced, SDH)

семпл
x264 info: frame I:1029 Avg QP:10.73 size: 72504
x264 info: frame P:34987 Avg QP:13.75 size: 20485
x264 info: frame B:121160 Avg QP:17.03 size: 5558
General
Unique ID : 139169476821586049571510514274000004332 (0x68B310F76F0BEF7B4912ADBC8D3564EC)
Complete name : D:uTorrentРипы_от_wolf1245_MediaBitBez.Zalosti.2021.MVO.HDRezka.WEB-DLRip-AVC.[wolf1245.MediaBit].mkv
Format : Matroska
Format version : Version 4
File size : 2.34 GiB
Duration : 1 h 49 min
Overall bit rate : 3 070 kb/s
Movie name : Bez.Zalosti.2021.MVO.HDRezka.WEB-DLRip-AVC.[wolf1245.MediaBit]
Encoded date : UTC 2021-05-06 16:18:04
Writing application : mkvmerge v56.1.0 ('My Friend') 64-bit
Writing library : libebml v1.4.2 + libmatroska v1.6.4
Video
ID : 1
Format : AVC
Format/Info : Advanced Video Codec
Format profile : [email protected]
Format settings : CABAC / 14 Ref Frames
Format settings, CABAC : Yes
Format settings, Reference frames : 14 frames
Codec ID : V_MPEG4/ISO/AVC
Duration : 1 h 49 min
Bit rate : 1 788 kb/s
Width : 1 024 pixels
Height : 428 pixels
Display aspect ratio : 2.40:1
Frame rate mode : Constant
Frame rate : 23.976 (24000/1001) FPS
Color space : YUV
Chroma subsampling : 4:2:0
Bit depth : 8 bits
Scan type : Progressive
Bits/(Pixel*Frame) : 0.170
Stream size : 1.36 GiB (58%)
Title : .[wolf1245.MediaBit]
Writing library : x264 core 157 r2958 57baac4
Encoding settings : cabac=1 / ref=14 / deblock=1:-3:-2 / analyse=0x3:0x133 / me=umh / subme=10 / psy=1 / psy_rd=1.00:0.02 / mixed_ref=1 / me_range=32 / chroma_me=1 / trellis=2 / 8x8dct=1 / cqm=0 / deadzone=21,11 / fast_pskip=1 / chroma_qp_offset=-3 / threads=10 / lookahead_threads=2 / sliced_threads=0 / nr=0 / decimate=1 / interlaced=0 / bluray_compat=0 / constrained_intra=0 / bframes=12 / b_pyramid=2 / b_adapt=2 / b_bias=0 / direct=3 / weightb=1 / open_gop=0 / weightp=2 / keyint=240 / keyint_min=24 / scenecut=40 / intra_refresh=0 / rc_lookahead=60 / rc=2pass / mbtree=1 / bitrate=1788 / ratetol=1.0 / qcomp=0.60 / qpmin=0 / qpmax=69 / qpstep=4 / cplxblur=20.0 / qblur=0.5 / vbv_maxrate=50000 / vbv_bufsize=62500 / nal_hrd=none / filler=0 / ip_ratio=1.40 / aq=1:0.80
Language : English
Default : Yes
Forced : No
Color range : Limited
Color primaries : BT.709
Transfer characteristics : BT.709
Matrix coefficients : BT.709
Audio #1
ID : 2
Format : AC-3
Format/Info : Audio Coding 3
Commercial name : Dolby Digital
Codec ID : A_AC3
Duration : 1 h 49 min
Bit rate mode : Constant
Bit rate : 448 kb/s
Channel(s) : 6 channels
Channel layout : L R C LFE Ls Rs
Sampling rate : 48.0 kHz
Frame rate : 31.250 FPS (1536 SPF)
Compression mode : Lossy
Stream size : 350 MiB (15%)
Title : MVO / (HDRezka)
Language : Russian
Service kind : Complete Main
Default : Yes
Forced : No
Audio #2
ID : 3
Format : AC-3
Format/Info : Audio Coding 3
Commercial name : Dolby Digital
Codec ID : A_AC3
Duration : 1 h 49 min
Bit rate mode : Constant
Bit rate : 448 kb/s
Channel(s) : 6 channels
Channel layout : L R C LFE Ls Rs
Sampling rate : 48.0 kHz
Frame rate : 31.250 FPS (1536 SPF)
Bit depth : 32 bits
Compression mode : Lossy
Stream size : 350 MiB (15%)
Title : Original
Language : English
Service kind : Complete Main
Default : No
Forced : No
Audio #3
ID : 4
Format : AC-3
Format/Info : Audio Coding 3
Commercial name : Dolby Digital
Codec ID : A_AC3
Duration : 1 h 49 min
Bit rate mode : Constant
Bit rate : 384 kb/s
Channel(s) : 6 channels
Channel layout : L R C LFE Ls Rs
Sampling rate : 48.0 kHz
Frame rate : 31.250 FPS (1536 SPF)
Compression mode : Lossy
Stream size : 300 MiB (13%)
Title : MVO | (HDRezka)
Language : Ukrainian
Service kind : Complete Main
Default : No
Forced : No
Text #1
ID : 5
Format : UTF-8
Codec ID : S_TEXT/UTF8
Codec ID/Info : UTF-8 Plain Text
Duration : 1 h 40 min
Bit rate : 1 b/s
Count of elements : 15
Stream size : 781 Bytes (0%)
Title : Forced
Language : Russian
Default : Yes
Forced : No
Text #2
ID : 6
Format : UTF-8
Codec ID : S_TEXT/UTF8
Codec ID/Info : UTF-8 Plain Text
Duration : 1 h 47 min
Bit rate : 52 b/s
Count of elements : 896
Stream size : 41.6 KiB (0%)
Language : Russian
Default : No
Forced : No
Text #3
ID : 7
Format : UTF-8
Codec ID : S_TEXT/UTF8
Codec ID/Info : UTF-8 Plain Text
Duration : 1 h 40 min
Bit rate : 1 b/s
Count of elements : 28
Stream size : 1.40 KiB (0%)
Title : Forced
Language : Ukrainian
Default : No
Forced : No
Text #4
ID : 8
Format : UTF-8
Codec ID : S_TEXT/UTF8
Codec ID/Info : UTF-8 Plain Text
Duration : 44 min 31 s
Bit rate : 0 b/s
Count of elements : 9
Stream size : 332 Bytes (0%)
Title : Forced
Language : English
Default : No
Forced : No
Text #5
ID : 9
Format : UTF-8
Codec ID : S_TEXT/UTF8
Codec ID/Info : UTF-8 Plain Text
Duration : 1 h 48 min
Bit rate : 47 b/s
Count of elements : 1436
Stream size : 38.1 KiB (0%)
Language : English
Default : No
Forced : No
Релиз от: amp; MediaBit




Скачать Без жалости через торрент https://i114.fastpic.ru/big/2021/0501/6c/a633e1a508a4d8ff064709425587b06c.png Скачать, смотреть онлайн Без жалости бесплантно в хорошем качестве Описание: Джон Келли не раз отправлялся в смертельно опасные командировки во вьетнамские джунгли, но его главный враг оказался совсем ... 9.2 10 12
Торрент: Зарегистрирован [2021-05-06 16:28] · скачан: 231 раз
Статус: √ проверено
Размер: 2.34 GB
Как cкачать? Как скачать Без жалости через торрент | UTorrent

28-11-2019 20:33  


Отключить вcю реклaмy на сайте, в т.ч. и в плеере онлайн просмотра!

    Дорогой пользователь! Огромная просьба, поблагодарите релизера, оцените раздачу и оставьте свои комментарий, если Вы скачали Без жалости через торрент бесплатно!!
    Комментировать посты могут только пользователи прошедшие не сложную регистрацию
    Показать сообщения:    


    Без жалости через торрент
    Скачать бесплатно Без жалости
    Без жалости скачать торрент
    Без жалости смотреть онлайн
    Cкачать фильм Без жалости бесплатно
    Без жалости скачать торрент в хорошем качестве
    Без жалости смотреть онлайн бесплатно в хорошем качестве
    Вы не можете начинать темы
    Вы не можете отвечать на сообщения
    Вы не можете редактировать свои сообщения
    Вы не можете удалять свои сообщения
    Вы не можете голосовать в опросах
    Вы не можете прикреплять файлы к сообщениям
    Вы можете скачивать файлы
    Без жалости / Without Remorse [2021, Боевик, приключения, триллер, WEB-DLRip-AVC] MVO [HDRezka] от MediaBit смотреть онлайн, скачать торрент picoco.icu