1 сезон

1 сезон

iTunes

1

iTunes

Кинопоиск HD

iTunes

13

1 сезон

RePack

30

Deluxe

ВАЖНО

ИГРА 18+

pack

RePack

MK11
pack

Легкие деньги

RePack

jed

RePack

fifa19

RePack

RDR2

RePack

NEED FOR SPEED™ PAYBACK

4 сезон

9 сезон

Бесстыжие 9 сезон

Все сериалы

все сериалы на PB.wtf

RePack

FAR CRY 5
  
Magnet ссылка

Джентльмены / The Gentlemen (Гай Ричи) [2019, боевик, комедия, криминал, BDRip (HEVC)1080p] 2x[DUB] (Rus, Ukr) + [MVO] + [DVO] + 4x [AVO] pb.wtf

Джентльмены через торрент pb.wtf

Раздают: 3 [ 14 KB/s ]
Размер: 8.47 GB | Добавлен: 12 д. назад | Торрент скачан:80 раз
Скачать  

01-05-2021 06:32 Джентльмены Скачать торрент  

Джентльмены / The Gentlemen

Год выпуска: 2019
Страна: США
Жанр: боевик, комедия, криминал
Продолжительность: 01:53:40
Перевод #1: Дублированный [iTunes]
Перевод #2: Профессиональный (многоголосый закадровый) *HDRezka Studio
Перевод #3: Профессиональный (двухголосый закадровый) *Кубик в Кубе
Перевод #4: Авторский (одноголосый, закадровый) *С.Визгунов
Перевод #5: Авторский (одноголосый, закадровый) А.Гаврилов
Перевод #6: Авторский (одноголосый, закадровый) *Д.Пучков *aka* Goblin
Перевод #7: Авторский (одноголосый, закадровый) *Ю.Сербин
Перевод #8: Украинский (дублированный) [iTunes]
Субтитры: Русские (форсированные, полные), украинские (полные), английские (полные)
Навигация по главам: есть
Режиссер: Гай Ричи / Guy Ritchie
В ролях:
Мэттью МакКонахи, Чарли Ханнэм, Генри Голдинг, Хью Грант, Мишель Докери, Джереми Стронг, Эдди Марсан, Джейсон Вонг, Колин Фаррелл, Лайн Рени
Описание:
Талантливый выпускник Оксфорда, применив свой уникальный ум и невиданную дерзость, придумал нелегальную схему обогащения с использованием поместья обедневшей английской аристократии. Однако когда он решает продать свой бизнес влиятельному клану миллиардеров из США, на его пути встают не менее обаятельные, но жесткие джентльмены. Намечается обмен любезностями, который точно не обойдется без перестрелок и парочки несчастных случаев.

rating

Качество видео: BDRip (HEVC )1080p
Формат: MKV
Видео кодек: H.265
Аудио кодек: AC3
Видео: HEVC , 1920x804, 6 748 kbps, 23,976 fps
Аудио #1: 48 kHz, AC3, 6 ch, ~384.00 kbps avg |Дублированный|
Аудио #2: 48 kHz, AC3, 6 ch, ~448.00 kbps avg |*HDRezka Studio|
Аудио #3: 48 kHz, AC3, 2 ch, ~192.00 kbps avg |*Кубик в Кубе|
Аудио #4: 48 kHz, AC3, 6 ch, ~448.00 kbps avg |Авторский, одноголосый - *С.Визгунов|
Аудио #5: 48 kHz, AC3, 6 ch, ~384.00 kbps avg |Авторский, одноголосый - А.Гаврилов|
Аудио #6: 48 kHz, AC3, 6 ch, ~448.00 kbps avg |Авторский, одноголосый - *Д.Пучков *aka* Goblin|
Аудио #7: 48 kHz, AC3, 6 ch, ~384.00 kbps avg |Авторский, одноголосый - *Ю.Сербин|
Аудио #8: 48 kHz, AC3, 6 ch, ~384.00 kbps avg |Украинский (дублированный)
Аудио #9: 48 kHz, AC3, 6 ch, ~640.00 kbps avg |Английский|

*В аудио дорогах # 2,3,4,6,7 присутствует ненормативная лексика!!!*
скриншот   скриншот   скриншот   скриншот   скриншот   скриншот   скриншот   скриншот  
General
Unique ID : 193218269502519034260814880456961990154 (0x915C7C2FC289AE3D94F70A1C75709E0A)
Complete name : G:\ФИЛЬМЫ\The Gentlemen.2019.BDRip (HEVC)1080p.[DUB] (Rus, Ukr), [MVO], [DVO], 4x[AVO].xz.mkv
Format : Matroska
Format version : Version 4 / Version 2
File size : 8.47 GiB
Duration : 1h 53mn
Overall bit rate : 10.7 Mbps
Movie name : The Gentlemen.2019.BDRip (HEVC)1080p.[DUB] (Rus, Ukr), [MVO], [DVO], 4x[AVO].xz
Encoded date : UTC 2021-05-01 05:42:05
Writing application : mkvmerge v6.1.0 ('Old Devil') built on Mar 2 2013 14:32:37
Writing library : libebml v1.3.0 + libmatroska v1.4.0
DURATION : 01:50:49.072000000
NUMBER_OF_FRAMES : 2124
NUMBER_OF_BYTES : 13573788
_STATISTICS_WRITING_APP : mkvmerge v51.0.0 ('I Wish') 64-bit
_STATISTICS_WRITING_DATE_UTC : 2020-12-04 01:50:43
_STATISTICS_TAGS : BPS DURATION NUMBER_OF_FRAMES NUMBER_OF_BYTES

Video
ID : 1
Format : HEVC
Format/Info : High Efficiency Video Coding
Format profile : Main@L4@High
Codec ID : V_MPEGH/ISO/HEVC
Duration : 1h 53mn
Bit rate : 6 747 Kbps
Width : 1 920 pixels
Height : 804 pixels
Display aspect ratio : 2.40:1
Frame rate mode : Constant
Frame rate : 23.976 fps
Color space : YUV
Chroma subsampling : 4:2:0
Bit depth : 8 bits
Bits/(Pixel*Frame) : 0.182
Stream size : 5.36 GiB (63%)
Title : The Gentlemen.2019.BDRip (HEVC)1080p.[DUB] (Rus, Ukr), [MVO], [DVO], 4x[AVO].xz
Default : Yes
Forced : No
Color range : Limited
Color primaries : BT.709
Transfer characteristics : BT.709
Matrix coefficients : BT.709

Audio #1
ID : 2
Format : AC-3
Format/Info : Audio Coding 3
Mode extension : CM (complete main)
Format settings, Endianness : Big
Codec ID : A_AC3
Duration : 1h 53mn
Bit rate mode : Constant
Bit rate : 384 Kbps
Channel(s) : 6 channels
Channel positions : Front: L C R, Side: L R, LFE
Sampling rate : 48.0 KHz
Compression mode : Lossy
Delay relative to video : -5ms
Stream size : 312 MiB (4%)
Title : DUB
Language : Russian
Default : Yes
Forced : No
DURATION : 01:53:40.032000000
NUMBER_OF_FRAMES : 213126
NUMBER_OF_BYTES : 545602560
_STATISTICS_WRITING_APP : mkvmerge v51.0.0 ('I Wish') 64-bit
_STATISTICS_WRITING_DATE_UTC : 2020-12-04 01:50:43
_STATISTICS_TAGS : BPS DURATION NUMBER_OF_FRAMES NUMBER_OF_BYTES

Audio #2
ID : 3
Format : AC-3
Format/Info : Audio Coding 3
Mode extension : CM (complete main)
Format settings, Endianness : Big
Codec ID : A_AC3
Duration : 1h 53mn
Bit rate mode : Constant
Bit rate : 448 Kbps
Channel(s) : 6 channels
Channel positions : Front: L C R, Side: L R, LFE
Sampling rate : 48.0 KHz
Compression mode : Lossy
Delay relative to video : -5ms
Stream size : 364 MiB (4%)
Title : HDRezka Studio
Language : Russian
Default : No
Forced : No

Audio #3
ID : 4
Format : AC-3
Format/Info : Audio Coding 3
Mode extension : CM (complete main)
Format settings, Endianness : Big
Codec ID : A_AC3
Duration : 1h 53mn
Bit rate mode : Constant
Bit rate : 192 Kbps
Channel(s) : 2 channels
Channel positions : Front: L R
Sampling rate : 48.0 KHz
Compression mode : Lossy
Delay relative to video : -5ms
Stream size : 156 MiB (2%)
Title : Kubik v Kube
Language : Russian
Default : No
Forced : No

Audio #4
ID : 5
Format : AC-3
Format/Info : Audio Coding 3
Mode extension : CM (complete main)
Format settings, Endianness : Big
Codec ID : A_AC3
Duration : 1h 53mn
Bit rate mode : Constant
Bit rate : 448 Kbps
Channel(s) : 6 channels
Channel positions : Front: L C R, Side: L R, LFE
Sampling rate : 48.0 KHz
Compression mode : Lossy
Delay relative to video : -5ms
Stream size : 364 MiB (4%)
Title : Vizgunov
Language : Russian
Default : No
Forced : No

Audio #5
ID : 6
Format : AC-3
Format/Info : Audio Coding 3
Mode extension : CM (complete main)
Format settings, Endianness : Big
Codec ID : A_AC3
Duration : 1h 53mn
Bit rate mode : Constant
Bit rate : 384 Kbps
Channel(s) : 6 channels
Channel positions : Front: L C R, Side: L R, LFE
Sampling rate : 48.0 KHz
Compression mode : Lossy
Delay relative to video : -5ms
Stream size : 312 MiB (4%)
Title : Gavrilov
Language : Russian
Default : No
Forced : No

Audio #6
ID : 7
Format : AC-3
Format/Info : Audio Coding 3
Mode extension : CM (complete main)
Format settings, Endianness : Big
Codec ID : A_AC3
Duration : 1h 53mn
Bit rate mode : Constant
Bit rate : 448 Kbps
Channel(s) : 6 channels
Channel positions : Front: L C R, Side: L R, LFE
Sampling rate : 48.0 KHz
Compression mode : Lossy
Delay relative to video : -5ms
Stream size : 364 MiB (4%)
Title : Goblin
Language : Russian
Default : No
Forced : No

Audio #7
ID : 8
Format : AC-3
Format/Info : Audio Coding 3
Mode extension : CM (complete main)
Format settings, Endianness : Big
Codec ID : A_AC3
Duration : 1h 53mn
Bit rate mode : Constant
Bit rate : 384 Kbps
Channel(s) : 6 channels
Channel positions : Front: L C R, Side: L R, LFE
Sampling rate : 48.0 KHz
Compression mode : Lossy
Delay relative to video : -5ms
Stream size : 312 MiB (4%)
Title : Serbin
Language : Russian
Default : No
Forced : No

Audio #8
ID : 9
Format : AC-3
Format/Info : Audio Coding 3
Mode extension : CM (complete main)
Format settings, Endianness : Big
Codec ID : A_AC3
Duration : 1h 53mn
Bit rate mode : Constant
Bit rate : 384 Kbps
Channel(s) : 6 channels
Channel positions : Front: L C R, Side: L R, LFE
Sampling rate : 48.0 KHz
Compression mode : Lossy
Delay relative to video : -5ms
Stream size : 312 MiB (4%)
Title : UKR DUB
Language : Ukrainian
Default : No
Forced : No

Audio #9
ID : 10
Format : AC-3
Format/Info : Audio Coding 3
Mode extension : CM (complete main)
Format settings, Endianness : Big
Codec ID : A_AC3
Duration : 1h 53mn
Bit rate mode : Constant
Bit rate : 640 Kbps
Channel(s) : 6 channels
Channel positions : Front: L C R, Side: L R, LFE
Sampling rate : 48.0 KHz
Compression mode : Lossy
Delay relative to video : -5ms
Stream size : 520 MiB (6%)
Title : ENG
Language : English
Default : No
Forced : No

Text #1
ID : 11
Format : UTF-8
Codec ID : S_TEXT/UTF8
Codec ID/Info : UTF-8 Plain Text
Title : rus (forced)
Language : Russian
Default : No
Forced : No

Text #2
ID : 12
Format : UTF-8
Codec ID : S_TEXT/UTF8
Codec ID/Info : UTF-8 Plain Text
Title : rus (full)
Language : Russian
Default : No
Forced : No

Text #3
ID : 13
Format : UTF-8
Codec ID : S_TEXT/UTF8
Codec ID/Info : UTF-8 Plain Text
Title : ukr (full)
Language : Ukrainian
Default : No
Forced : No

Text #4
ID : 14
Format : VobSub
Muxing mode : zlib
Codec ID : S_VOBSUB
Codec ID/Info : Picture based subtitle format used on DVDs
Title : ENG SDH
Language : English
Default : No
Forced : No

Menu
00:00:00.000 : :Chapter 1
00:04:27.100 : :Chapter 2
00:08:16.413 : :Chapter 3
00:13:42.780 : :Chapter 4
00:19:21.494 : :Chapter 5
00:24:49.989 : :Chapter 6
00:30:23.530 : :Chapter 7
00:37:17.944 : :Chapter 8
00:41:55.430 : :Chapter 9
00:48:38.874 : :Chapter 10
00:56:51.199 : :Chapter 11
01:03:34.102 : :Chapter 12
01:08:45.121 : :Chapter 13
01:14:18.204 : :Chapter 14
01:19:05.991 : :Chapter 15
01:24:30.023 : :Chapter 16
01:29:24.776 : :Chapter 17
01:34:21.114 : :Chapter 18
01:40:11.130 : :Chapter 19
01:48:37.553 : :Chapter 20
pb.wtf



Скачать Джентльмены через торрент https://b.radikal.ru/b13/2004/2c/e4bd0ecaf6ae.png Скачать фильм Джентльмены через торрент бесплантно в хорошем качестве Описание:Талантливый выпускник Оксфорда, применив свой уникальный ум и невиданную дерзость, придумал нелегальную схему обогащения с ... 10 10 2
Торрент: Зарегистрирован [2021-05-01 06:32] · скачан: 80 раз
Статус: √ проверено
Размер: 8.47 GB
Как cкачать? Как скачать Джентльмены через торрент | UTorrent

% Раздел Тема Автор DL S | L
Ultra HD (UHD: 2K, 4K, 8K) — видео сверхвысокой чёткости [ 53.19 GB ] Джентльмены / The Gentlemen [2019 UHD BDRemux 2160p] DUB bober100 Скачать
1 | 1
Официальные cаундтреки к зарубежным фильмам [ 106 MB ] OST - Джентльмены / The Gentlemen 2019 / MP3 / 320 kbps / Score bober100 Скачать
2 | 0
Фильмы 2019-2020 [DVDrip, WEB-DLRip, HDrip] (DUB, MVO) [ 2.82 GB ] Джентльмены / The Gentlemen [2019 WEB-DLRip-AVC] () + [AVO] killermax2013 Скачать
4 | 0
Фильмы (HD 720p, 1080p) (48-60 fps) [ 3.93 GB ] Джентльмены / The Gentlemen [2019 . BDRip 1080p / 60 FPS AVO Яроцкий] dd2d3 Скачать
1 | 0
Фильмы 2019-2020 [DVDrip, WEB-DLRip, HDrip] (DUB, MVO) [ 2.2 GB ] Джентльмены / The Gentlemen [2019 BDRip-AVC] Dub sokol_ok Скачать
376 | 5
Фильмы 2019-2020 [DVDrip, WEB-DLRip, HDrip] (DUB, MVO) [ 1.37 GB ] Джентльмены / The Gentlemen [2019 BDRip-AVC] Dub sokol_ok Скачать
54 | 0
Фильмы с авторской озвучкой [ 1.46 GB ] Джентльмены / The Gentlemen [2019 WEB-DLRip] [AVO] killermax2013 Скачать
6 | 0

28-11-2019 20:33  

Отключить всю рекламу на сайте

01-05-2021 09:11 Джентльмены Скачать торрент  

костюмы у них прикольные, я бы взялpb.wtf



    Дорогой пользователь! Огромная просьба, поблагодарите релизера, оцените раздачу и оставьте свои комментарий, если Вы скачали Джентльмены через торрент бесплатно! Внесите свою лепту в развитие PiratBit!
    Комментировать посты могут только пользователи прошедшие не сложную регистрацию
    Показать сообщения:    

    Джентльмены через торрент
    Скачать бесплатно Джентльмены
    Джентльмены скачать торрент
    Джентльмены смотреть онлайн
    Cкачать фильм Джентльмены бесплатно
    Джентльмены скачать торрент в хорошем качестве
    Джентльмены смотреть онлайн бесплатно в хорошем качестве


    Вы не можете начинать темы
    Вы не можете отвечать на сообщения
    Вы не можете редактировать свои сообщения
    Вы не можете удалять свои сообщения
    Вы не можете голосовать в опросах
    Вы не можете прикреплять файлы к сообщениям
    Вы можете скачивать файлы