1 сезон

1 сезон

iTunes

1

iTunes

Кинопоиск HD

iTunes

13

1 сезон

RePack

30

Deluxe

ВАЖНО

ИГРА 18+

pack

RePack

MK11
pack

Легкие деньги

RePack

jed

RePack

fifa19

RePack

RDR2

RePack

NEED FOR SPEED™ PAYBACK

4 сезон

9 сезон

Бесстыжие 9 сезон

Все сериалы

все сериалы на PB.wtf

RePack

FAR CRY 5
  
Magnet ссылка

Радиовспышка / Radioflash (Бен Макферсон) [2019 г., Фантастика, боевик, триллер, драма, BDRip] Дубляж (iTunes) pb.wtf

Радиовспышка через торрент pb.wtf

Раздают: 21 [ 45 KB/s ]
Размер: 1.46 GB | Добавлен: 12 д. назад | Торрент скачан:192 раза
Скачать  

01-05-2021 15:03 Радиовспышка Скачать торрент  

Радио вспышка / Radioflash
Год выпуска: 2019

Страна: США

Жанр: Фантастика, боевик, триллер, драма

Продолжительность: 01:42:34

Перевод: Дубляж - iTunes

Субтитры: Отсутствуют

Режиссер: Бен Макферсон

rating

В ролях: Брайтон Шарбино, Доминик Монаган, Уилл Пэттон, Фионнула Флэнаган, Майлз Андерсон, Майкл Филиппович, Кайл Коллин, Шон Кук, Арден Майрин, Макс Адлер

Описание: Самые разнообразные виртуальные квесты Риз преодолевал без особых усилий. Произошел блэкаут, причем он носил всеобщий характер. Девушке доводится лицом к лицу встретиться не просто с неприглядной реальностью, а жестокой. Все приборы работавшие от электросети и гаджеты, что требовали зарядки от оной становятся абсолютно бесполезными. Интернет и телефонная связь также отсутствуют. Люди принимаются сражаться за ресурсы. Власти же не предпринимают никаких попыток урегулировать ситуацию. Риз вместе с отцом отправляется в деревенскую местность, где живет дедушка, известный выживальщик. Путь отцу и дочери предстоит долгий и опасный.
Качество: BDRip

Формат: AVI

Видео: XviD, 1647 Кбит/с, 720x304

Аудио: Русский - AC3, 6 ch, 384 Кбит/с
Видео
Идентификатор : 0
Формат : MPEG-4 Visual
Профиль формата : Advanced Simple@L5
Настройки формата : BVOP1 / Custom Matrix
Параметр BVOP формата : 1
Параметр QPel формата : Нет
Параметр GMC формата : Без точки перехода
Параметр матрицы формата : Выборочная
Идентификатор кодека : XVID
Идентификатор кодека/Подсказка : XviD
Продолжительность : 1 ч. 42 м.
Битрейт : 1647 Кбит/сек
Ширина : 720 пикселей
Высота : 304 пикселя
Соотношение сторон : 2,35:1
Частота кадров : 23,976 (24000/1001) кадра/сек
Цветовое пространство : YUV
Субдискретизация насыщенности : 4:2:0
Битовая глубина : 8 бит
Тип развёртки : Прогрессивная
Метод сжатия : С потерями
Бит/(Пиксели*Кадры) : 0.314
Размер потока : 1,18 Гбайт (81%)
Библиотека кодирования : XviD 73

Аудио
Идентификатор : 1
Формат : AC-3
Формат/Информация : Audio Coding 3
Коммерческое название : Dolby Digital
Идентификатор кодека : 2000
Продолжительность : 1 ч. 42 м.
Вид битрейта : Постоянный
Битрейт : 384 Кбит/сек
Каналы : 6 каналов
ChannelLayout : L R C LFE Ls Rs
Частота : 48,0 КГц
Частота кадров : 31,250 кадров/сек (1536 SPF)
Метод сжатия : С потерями
Размер потока : 281 Мбайт (19%)
Выравнивание : Разделение по промежуткам
Продолжительность промежутка : 42 мс. (1,00 видеокадр)
Время предзагрузки промежутка : 500 мс.
ServiceKind/String : Complete Main

скриншот   скриншот   скриншот   скриншот   скриншот  

pb.wtf



Скачать Радиовспышка через торрент https://pic1.kartinco.top/new/img/2021-05/01/qsj9cxsct8sgc5s6pozcu68r4.jpg Скачать фильм Радиовспышка через торрент бесплантно в хорошем качестве Описание: Самые разнообразные виртуальные квесты Риз преодолевал без особых усилий. Произошел блэкаут, причем он носил всеобщий характер. ... 10 10 10
Торрент: Зарегистрирован [2021-05-01 15:03] · скачан: 192 раз
Статус: √ проверено
Размер: 1.46 GB
Как cкачать? Как скачать Радиовспышка через торрент | UTorrent

% Раздел Тема Автор DL S | L
Фильмы [HD 720p, 1080p] (Хороший звук DUB, MVO) [ 11.66 GB ] Радиовспышка / Radioflash [2019 BDRip 1080 killermax2013 Скачать
14 | 0

28-11-2019 20:33  

Отключить всю рекламу на сайте

    Дорогой пользователь! Огромная просьба, поблагодарите релизера, оцените раздачу и оставьте свои комментарий, если Вы скачали Радиовспышка через торрент бесплатно! Внесите свою лепту в развитие PiratBit!
    Комментировать посты могут только пользователи прошедшие не сложную регистрацию
    Показать сообщения:    

    Радиовспышка через торрент
    Скачать бесплатно Радиовспышка
    Радиовспышка скачать торрент
    Радиовспышка смотреть онлайн
    Cкачать фильм Радиовспышка бесплатно
    Радиовспышка скачать торрент в хорошем качестве
    Радиовспышка смотреть онлайн бесплатно в хорошем качестве


    Вы не можете начинать темы
    Вы не можете отвечать на сообщения
    Вы не можете редактировать свои сообщения
    Вы не можете удалять свои сообщения
    Вы не можете голосовать в опросах
    Вы не можете прикреплять файлы к сообщениям
    Вы можете скачивать файлы