1 сезон

1 сезон

iTunes

1

iTunes

Кинопоиск HD

iTunes

13

1 сезон

RePack

30

Deluxe

ВАЖНО

ИГРА 18+

pack

RePack

MK11
pack

Легкие деньги

RePack

jed

RePack

fifa19

RePack

RDR2

RePack

NEED FOR SPEED™ PAYBACK

4 сезон

9 сезон

Бесстыжие 9 сезон

Все сериалы

все сериалы на PB.wtf

RePack

FAR CRY 5
  
Magnet ссылка

Пара из будущего (Алексей Нужный) [2021, Комедия, фантастика, мелодрама, WEB-DL 720p] [iTunes] pb.wtf

Пара из будущего через торрент pb.wtf

Раздают: 29 [ 519 KB/s ]
Размер: 2.83 GB | Добавлен: 11 д. назад | Торрент скачан:455 раз
Скачать  

02-05-2021 06:11 Пара из будущего Скачать торрент  

Пара из будущего
Год выпуска: 2021
Страна: Россия
Выпущено: Студия Тритэ
Жанр: Комедия, фантастика, мелодрама
Продолжительность: 01:44:15
Перевод: Не требуется | iTunes
Субтитры: отсутствуют

Режиссер: Алексей Нужный



В ролях: Сергей Бурунов, Мария Аронова, Денис Парамонов, Дарья Коныжева, Сергей Степин, Павел Мисаилов, Ирина Горбачева, Серафима Красникова

Описание: Недалекое будущее, 2040 год. Евгений и Александра 20 лет в браке, их отношения похожи на высохший урюк. Развестись у них тоже не получается, поскольку в будущем расторжение брака – очень дорогая услуга. Но судьба дает им шанс: Евгений и Александра попадают в прошлое, в тот самый день 20 лет назад, когда влюбленный и юный Женя сделал предложение прелестной Саше. Теперь пара из будущего хочет разлучить самих себя в молодости, но это будет непросто. Молодые будут сражаться за свою любовь.

Качество: WEB-DL 720p
Формат: MKV

Видео: MPEG-4 AVC, 3500 Кбит/с, 1280x536, 24.000 fps
Аудио: 48 kHz, AC3 Dolby Digital, 3/2 (L, C, R, l, r) + LFE ch, ~384 kbps
скриншот  скриншот  скриншот  скриншот  

Общее
Уникальный идентификатор : 137084797197885739375358697922749264826 (0x672192535A5EB299A8A66EB5737FF3BA)
Полное имя : D:\Пара из будущего (2021) WEB-DL 720p (Лиц).mkv
Формат : Matroska
Версия формата : Version 4 / Version 2
Размер файла : 2,83 Гбайт
Продолжительность : 1 ч. 44 м.
Общий поток : 3884 Кбит/сек
Дата кодирования : UTC 2021-05-01 00:52:55
Программа кодирования : mkvmerge v51.0.0 ('I Wish') 64-bit
Библиотека кодирования : libebml v1.4.0 + libmatroska v1.6.2

Видео
Идентификатор : 1
Формат : AVC
Формат/Информация : Advanced Video Codec
Профиль формата : High@L4
Параметр CABAC формата : Да
Параметр RefFrames формата : 5 кадров
Идентификатор кодека : V_MPEG4/ISO/AVC
Продолжительность : 1 ч. 44 м.
Битрейт : 3500 Кбит/сек
Ширина : 1280 пикселей
Высота : 536 пикселей
Соотношение сторон : 2,40:1
Режим частоты кадров : Постоянный
Частота кадров : 24,000 кадра/сек
Цветовое пространство : YUV
Субдискретизация насыщенности : 4:2:0
Битовая глубина : 8 бит
Тип развёртки : Прогрессивная
Бит/(Пиксели*Кадры) : 0.213
Размер потока : 2,55 Гбайт (90%)
Библиотека кодирования : x264 core 157 r2935 545de2f
Настройки программы : cabac=1 / ref=5 / deblock=1:0:0 / analyse=0x3:0x113 / me=hex / subme=8 / psy=1 / psy_rd=1.00:0.00 / mixed_ref=1 / me_range=16 / chroma_me=1 / trellis=2 / 8x8dct=1 / cqm=0 / deadzone=21,11 / fast_pskip=1 / chroma_qp_offset=-2 / threads=17 / lookahead_threads=2 / sliced_threads=0 / nr=0 / decimate=1 / interlaced=0 / bluray_compat=0 / constrained_intra=0 / bframes=3 / b_pyramid=2 / b_adapt=1 / b_bias=0 / direct=3 / weightb=1 / open_gop=0 / weightp=2 / keyint=240 / keyint_min=24 / scenecut=40 / intra_refresh=0 / rc_lookahead=50 / rc=2pass / mbtree=1 / bitrate=3500 / ratetol=1.0 / qcomp=0.60 / qpmin=0 / qpmax=69 / qpstep=4 / cplxblur=20.0 / qblur=0.5 / vbv_maxrate=25000 / vbv_bufsize=31250 / nal_hrd=none / filler=0 / ip_ratio=1.40 / aq=1:1.00
Язык : English
Default : Да
Forced : Нет
Цветовой диапазон : Limited
Основные цвета : BT.709
Характеристики трансфера : BT.709
Коэффициенты матрицы : BT.709

Аудио
Идентификатор : 2
Формат : AC-3
Формат/Информация : Audio Coding 3
Расширение режима : CM (complete main)
Параметр Endianness формата : Big
Идентификатор кодека : A_AC3
Продолжительность : 1 ч. 44 м.
Вид битрейта : Постоянный
Битрейт : 384 Кбит/сек
Каналы : 6 каналов
Расположение каналов : Front: L C R, Side: L R, LFE
Частота : 48,0 КГц
Частота кадров : 31,250 кадров/сек (1536 spf)
Метод сжатия : С потерями
Размер потока : 286 Мбайт (10%)
Язык : Russian
Default : Да
Forced : Нет

Меню
00:00:00.000 : en:Глава 1
00:04:59.791 : en:Глава 2
00:09:06.540 : en:Глава 3
00:17:14.373 : en:Глава 4
00:24:48.081 : en:Глава 5
00:30:58.081 : en:Глава 6
00:37:34.246 : en:Глава 7
00:44:13.287 : en:Глава 8
00:52:19.787 : en:Глава 9
01:00:45.578 : en:Глава 10
01:08:31.661 : en:Глава 11
01:13:31.577 : en:Глава 12
01:17:39.327 : en:Глава 13
01:26:18.952 : en:Глава 14
01:33:02.452 : en:Глава 15

pb.wtf



Скачать Пара из будущего через торрент https://i114.fastpic.ru/big/2021/0420/9a/892975a06a9e3e66edf92bac6e4fae9a.jpg Скачать фильм Пара из будущего через торрент бесплантно в хорошем качестве Описание: Недалекое будущее, 2040 год. Евгений и Александра 20 лет в браке, их отношения похожи на высохший урюк. Развестись у них тоже не ... 9.8 10 10
Info! Золотая раздача, скачанное не засчитывается.
Торрент: Зарегистрирован [2021-05-02 06:11] · скачан: 455 раз
Статус: √ проверено
Размер: 2.83 GB
Как cкачать? Как скачать Пара из будущего через торрент | UTorrent

% Раздел Тема Автор DL S | L
Наши фильмы (HD, WEB-DL 720p, 1080p) [ 3.58 GB ] Пара из будущего [2021 WEB-DL 1080p] bober100 Скачать
109 | 5
Наши новые фильмы 2020 - 2021 [ 747 MB ] Пара из будущего [2021 WEB-DLRip] bober100 Скачать
1 | 0
Наши новые фильмы 2020 - 2021 [ 1.4 GB ] Пара из будущего [2021 WEB-DLRip-AVC] sokol_ok Скачать
68 | 1
Наши новые фильмы 2020 - 2021 [ 1.46 GB ] Пара из будущего [2021 WEB-DLRip] bober100 Скачать
13 | 0
3D Видео (48-60 fps) [ 13.7 GB ] Грань будущего / Edge of Tomorrow [2014 Австралия 3D BDRip 1080p / 60 FPS Горизонтальная анаморфная стереопара ] Tiberiumsun69 Скачать
1 | 0
3D Видео (48-60 fps) [ 16.59 GB ] Люди Икс: Дни минувшего будущего [2014 3D BDRip 1080p / 60 FPS Горизонтальная анаморфная стереопара ] Tiberiumsun69 Скачать
1 | 0

28-11-2019 20:33  

Отключить всю рекламу на сайте

07-05-2021 17:28 Пара из будущего Скачать торрент  

Душевный фильм!pb.wtf



    Дорогой пользователь! Огромная просьба, поблагодарите релизера, оцените раздачу и оставьте свои комментарий, если Вы скачали Пара из будущего через торрент бесплатно! Внесите свою лепту в развитие PiratBit!
    Комментировать посты могут только пользователи прошедшие не сложную регистрацию
    Показать сообщения:    

    Пара из будущего через торрент
    Скачать бесплатно Пара из будущего
    Пара из будущего скачать торрент
    Пара из будущего смотреть онлайн
    Cкачать фильм Пара из будущего бесплатно
    Пара из будущего скачать торрент в хорошем качестве
    Пара из будущего смотреть онлайн бесплатно в хорошем качестве


    Вы не можете начинать темы
    Вы не можете отвечать на сообщения
    Вы не можете редактировать свои сообщения
    Вы не можете удалять свои сообщения
    Вы не можете голосовать в опросах
    Вы не можете прикреплять файлы к сообщениям
    Вы можете скачивать файлы