1 сезон

3 сезон

iTunes

1

iTunes

DUB Netflix

iTunes

13

1 сезон

RePack

30

Deluxe

pack

Легкие деньги

ВАЖНО

ИГРА 18+

pack

RePack

MK11

RePack

jed

RePack

fifa19

RePack

RDR2

RePack

NEED FOR SPEED™ PAYBACK

4 сезон

9 сезон

Бесстыжие 9 сезон

Все сериалы

все сериалы на PB.wtf

RePack

FAR CRY 5

Anonymous, добрый день, мы не успеваем до 1 числа собрать деньги на оплату серверов, помогите нам пожалуйста в это трудное время. В качестве благодарности мы отключим Вам всю рекламу на сайте (укажите свой ник в строку Ваше имя)!

×
  
Magnet ссылка

Берег москитов / The Mosquito Coast / Сезон: 1 / Серии: 1-3 из 7 (Наталия Беристайн, Руперт Уайатт, Клер Килнер) [2021, Триллер, драма, приключения, WEB-DL 720p] MVO [HDRezka Studio] pb.wtf

Берег москитов через торрент pb.wtf

Раздают: 1 [ 0 KB/s ]
Размер: 4.94 GB | Добавлен: 1 мес. 10 д. назад | Торрент скачан:21 раз
Скачать  

02-05-2021 07:48 Берег москитов Скачать торрент  

Берег москитов | The Mosquito Coast
Год выпуска: 2021
Страна: США
Выпущено: Fremantle Media North America, Redrum, Veritas Entertainment Group
Жанр: Триллер, драма, приключения
Продолжительность: ~ 01:00:00
Перевод: Профессиональный (многоголосый) | HDRezka Studio
Субтитры: Русские, английские, украинские

Режиссер: Наталия Беристайн, Руперт Уайатт, Клер Килнер

rating

В ролях: Джастин Теру, Мелисса Джордж, Логан Полиш, Гэбриел Бейтман, Кимберли Элиз, Скотти Товар, Грег Брайан, Алехандро Карденас, Офелия Медина

Описание: Экранизация романа Пола Теру. Сериал рассказывает об изобретателе, который продаёт свой дом и переезжает вместе с семьей в Центральную Америку, на Берег Москитов, где сталкивается с рядом проблем.

Качество: WEB-DL 720p
Формат: MKV

Видео: MPEG-4 AVC, ~ 4600 Кбит/с, 1280x640
Аудио Rus: 48 kHz, AC3, 3/2 (L,C,R,l,r) + LFE ch, ~448 kbps avg |HDRezka Studio|
Аудио Eng: 48 kHz, E-AC-3 JOC, 3/2 (L,C,R,l,r) + LFE ch, ~768 kbps avg |Original|
скриншот  скриншот  скриншот  скриншот  

Общее
Уникальный идентификатор : 201306670084611695291455481982505884718 (0x9772411FD6EF5A84A5CB3494B6E69C2E)
Полное имя : C:\The.Mosquito.Coast.S01.720p.WEB-DL\The.Mosquito.Coast.S01E01.Light.Out.720p.WEB-DL.ИВ.mkv
Формат : Matroska
Версия формата : Version 2
Размер файла : 2,39 Гбайт
Продолжительность : 57 м. 36 с.
Режим общего битрейта : Переменный
Общий поток : 5950 Кбит/сек
Название фильма : 01. Light оut
Дата кодирования : UTC 2021-05-01 20:20:26
Программа кодирования : mkvmerge v7.8.0 ('River Man') 32bit built on Apr 3 2015 12:11:22
Библиотека кодирования : libebml v1.3.1 + libmatroska v1.4.2

Видео
Идентификатор : 1
Формат : AVC / AVC
Формат/Информация : Advanced Video Codec
Профиль формата : High@L4.1 / High@L5
Параметр CABAC формата : Да / Да
Параметр RefFrames формата : 1 кадр / 16 кадров
Идентификатор кодека : V_MPEG4/ISO/AVC
Продолжительность : 57 м. 36 с.
Вид битрейта : Переменный
Битрейт : 4616 Кбит/сек
Максимальный битрейт : 2000 Кбит/сек
Ширина : 1280 пикселей
Ширина оригинала : 1280 пикселей / 1280 пикселей
Высота : 640 пикселей
Высота оригинала : 640 пикселей / 640 пикселей
Соотношение сторон : 2,000
Режим частоты кадров : Постоянный
Частота кадров : 23,976 (24000/1001) кадра/сек
Цветовое пространство : YUV / YUV
Субдискретизация насыщенности : 4:2:0 / 4:2:0
Битовая глубина : 8 бит / 8 бит
Тип развёртки : Прогрессивная / Progressive
Бит/(Пиксели*Кадры) : 0.235
Размер потока : 1,86 Гбайт (78%)
Заголовок : The.Mosquito.Coast.S01E01.Light.Out.720p.WEB-DL.ИВ
Язык : English
Default : Да
Forced : Нет

Аудио #1
Идентификатор : 2
Формат : AC-3
Формат/Информация : Audio Coding 3
Расширение режима : CM (complete main)
Параметр Endianness формата : Big
Идентификатор кодека : A_AC3
Продолжительность : 57 м. 36 с.
Вид битрейта : Постоянный
Битрейт : 448 Кбит/сек
Каналы : 6 каналов
Расположение каналов : Front: L C R, Side: L R, LFE
Частота : 48,0 КГц
Частота кадров : 31,250 кадров/сек (1536 spf)
Метод сжатия : С потерями
Задержка видео : 24 мс.
Размер потока : 185 Мбайт (8%)
Язык : Russian
Default : Да
Forced : Нет

Аудио #2
Идентификатор : 3
Формат : E-AC-3
Формат/Информация : Audio Coding 3
Параметр Endianness формата : Big
Идентификатор кодека : A_EAC3
Продолжительность : 57 м. 36 с.
Вид битрейта : Постоянный
Битрейт : 768 Кбит/сек
Каналы : 6 каналов
Расположение каналов : Front: L C R, Side: L R, LFE
Частота : 48,0 КГц
Частота кадров : 187,500 кадров/сек (256 spf)
Метод сжатия : С потерями
Задержка видео : 20 мс.
Размер потока : 316 Мбайт (13%)
Язык : English
Default : Нет
Forced : Нет

Текст #1
Идентификатор : 4
Формат : UTF-8
Идентификатор кодека : S_TEXT/UTF8
Идентификатор кодека/Информация : UTF-8 Plain Text
Язык : Russian
Default : Нет
Forced : Нет

Текст #2
Идентификатор : 5
Формат : UTF-8
Идентификатор кодека : S_TEXT/UTF8
Идентификатор кодека/Информация : UTF-8 Plain Text
Язык : Ukrainian
Default : Нет
Forced : Нет

Текст #3
Идентификатор : 6
Формат : UTF-8
Идентификатор кодека : S_TEXT/UTF8
Идентификатор кодека/Информация : UTF-8 Plain Text
Язык : English
Default : Нет
Forced : Нет

Текст #4
Идентификатор : 7
Формат : UTF-8
Идентификатор кодека : S_TEXT/UTF8
Идентификатор кодека/Информация : UTF-8 Plain Text
Заголовок : SDH
Язык : English
Default : Нет
Forced : Нет

Внимание! Раздача ведётся путём добавления новых серий; при каждом добавлении создаётся новый торрент.
Чтобы начать докачку новой серии, пользователям необходимо сделать следующее:
1. Остановить скачивание;
2. Удалить старый торрент у себя из клиента (старые серии удалять не надо);
3. Скачать новый торрент и запустить его у себя в клиенте вместо старого, при этом указать клиенту путь в старую папку куда и должно происходить скачивание новых серий. Ваш клиент при этом должен произвести хеширование (проверку) старой папки и будет докачивать только те серии, которых у вас ещё нет. Старые серии при этом не удаляются, а продолжают раздаваться! Eсли вы уже удалили старые серии, то предотвратить повторную закачку старых серий можно, отжав галочку в соответствующих местах при запуске нового торрента.

pb.wtf



Скачать Берег москитов через торрент https://i114.fastpic.ru/big/2021/0502/6c/7a70177a774b9b95e85e08eb8c60b56c.jpg Скачать фильм Берег москитов через торрент бесплантно в хорошем качестве Описание: Экранизация романа Пола Теру. Сериал рассказывает об изобретателе, который продаёт свой дом и переезжает вместе с семьей в ... 10 10 5
Торрент: Зарегистрирован [2021-05-09 08:28] · скачан: 21 раз
Статус: √ проверено
Размер: 4.94 GB
Как cкачать? Как скачать Берег москитов через торрент | UTorrent

28-11-2019 20:33  

Отключить всю рекламу на сайте

    Дорогой пользователь! Огромная просьба, поблагодарите релизера, оцените раздачу и оставьте свои комментарий, если Вы скачали Берег москитов через торрент бесплатно! Внесите свою лепту в развитие PiratBit!
    Комментировать посты могут только пользователи прошедшие не сложную регистрацию
    Показать сообщения:    

    Берег москитов через торрент
    Скачать бесплатно Берег москитов
    Берег москитов скачать торрент
    Берег москитов смотреть онлайн
    Cкачать фильм Берег москитов бесплатно
    Берег москитов скачать торрент в хорошем качестве
    Берег москитов смотреть онлайн бесплатно в хорошем качестве


    Вы не можете начинать темы
    Вы не можете отвечать на сообщения
    Вы не можете редактировать свои сообщения
    Вы не можете удалять свои сообщения
    Вы не можете голосовать в опросах
    Вы не можете прикреплять файлы к сообщениям
    Вы можете скачивать файлы