Присоединяйтесь к нам в Telegram!, здесь всегда актуальный адрес сайта, оперативная поддержка и многое другое!!

>

5.9

iTunes

7.4

iTunes

9.4

1 сезон

1

7.4

2 сезон

7.2

iTunes

7.3

1 сезон

13

6.1

iTunes

8.3

GOG

30

ULTIMATE

pack

9.9

Лицензия

ВАЖНО

ИГРА 18+

pack

7.3

RePack

MK11

7.7

RePack

jed

7.8

RePack

fifa19

8.5

RePack

RDR2

RePack

NEED FOR SPEED™ PAYBACK

5 сезон

9 сезон

Бесстыжие 9 сезон

Все сериалы

все сериалы на PB.wtf

RePack

FAR CRY 5

Anonymous, добрый вечер, мы катастрофически не успеваем собрать деньги на оплату серверов, помогите нам пожалуйста 5,10,15р., для нас важна любая помощь . В качестве благодарности мы отключим Вам всю рекламу на сайте (укажите свой ник в строку Ваше имя)!

×
  
Magnet ссылка

Мавританец / The Mauritanian (Кевин Макдональд) [2021, Триллер, драма, HDRip-AVC] DUB [iTunes] от MediaBit pb.wtf

Мавританец через торрент pb.wtf

Раздают: 6 [ 0 KB/s ]
Размер: 2.86 GB | Добавлен: 6 мес. назад | Торрент скачан:241 раз
Смотреть онлайн Мавританец | Скачать    Ребята, помогите собрать деньги на оплату серверов!!!

02-05-2021 08:26 Мавританец Скачать торрент  


Мавританец / The Mauritanian
Информация о фильме:
Название: Мавританец
Оригинальное название: The Mauritanian
Год выхода: 2021
Жанр: Биография, драма, триллер
Режиссер: Кевин Макдональд

В ролях: Джоди Фостер, Тахар Рахим, Закари Ливай, Саамер Усмани, Бенедикт Камбербэтч, Шейлин Вудли, Стевель Марк, Незар Альдерази, Клэйтон Бойд, Фрэнсис Чалер

Описание: Не получив официальных обвинений и возможности защиты в суде, Мохаммед Ульд Слахи провел в тюрьме Гуантанамо более 6 лет. Только после этого он был удостоен права иметь адвокатов. Но и им в борьбе с правительственной машиной предстоит побороть личные сомнения.



Страна: Великобритания, США
Студия: 30West, BBC Films, Convergent Media, First Look Media, Great Point Media, Shadowplay Features, SunnyMarch, Wonder Street
Продолжительность: 02:09:43
Перевод: Дублированный - iTunes



Информация о файле:
Кодек: AVC
Формат: MKV
Качество: HDRip-AVC
Видео: MPEG-4 AVC, 1024x432, 23.976 fps, 1940 kbps
Аудио RU: AC3, 6 ch, 48 kHz, 384 kbps
Аудио EN: AC3, 6 ch, 48 kHz, 448 kbps
Аудио UKR: AC3, 6 ch, 48 kHz, 384 kbps
Субтитры: Русские (Forced, 2 x full [Enigma, FOCS]), украинские (Forced), английские
Навигация по главам: Да

x264 info: frame I:1398 Avg QP:12.91 size: 71962
x264 info: frame P:40396 Avg QP:16.99 size: 21523
x264 info: frame B:144831 Avg QP:20.44 size: 6330
General
Unique ID : 152943944148521635592983168566558227167 (0x730FEEA3AA4A2DE2E148C1D143287ADF)
Complete name : D:uTorrentРипы_от_wolf1245_MediaBitThe Mauritanian.2021.DUB.HDRip-AVC.[wolf1245.MediaBit].mkv
Format : Matroska
Format version : Version 4
File size : 2.86 GiB
Duration : 2 h 9 min
Overall bit rate : 3 157 kb/s
Movie name : The Mauritanian.2021.DUB.HDRip-AVC.[wolf1245.MediaBit]
Encoded date : UTC 2021-05-02 08:14:38
Writing application : mkvmerge v56.1.0 ('My Friend') 64-bit
Writing library : libebml v1.4.2 + libmatroska v1.6.4
Video
ID : 1
Format : AVC
Format/Info : Advanced Video Codec
Format profile : High@L4.1
Format settings : CABAC / 12 Ref Frames
Format settings, CABAC : Yes
Format settings, Reference frames : 12 frames
Codec ID : V_MPEG4/ISO/AVC
Duration : 2 h 9 min
Bit rate : 1 940 kb/s
Width : 1 024 pixels
Height : 432 pixels
Display aspect ratio : 2.40:1
Frame rate mode : Constant
Frame rate : 23.976 (24000/1001) FPS
Color space : YUV
Chroma subsampling : 4:2:0
Bit depth : 8 bits
Scan type : Progressive
Bits/(Pixel*Frame) : 0.183
Stream size : 1.76 GiB (61%)
Title : .[wolf1245.MediaBit]
Writing library : x264 core 157 r2958 57baac4
Encoding settings : cabac=1 / ref=12 / deblock=1:-3:-3 / analyse=0x3:0x133 / me=umh / subme=11 / psy=1 / psy_rd=1.02:0.07 / mixed_ref=1 / me_range=48 / chroma_me=1 / trellis=2 / 8x8dct=1 / cqm=0 / deadzone=21,11 / fast_pskip=1 / chroma_qp_offset=-3 / threads=10 / lookahead_threads=2 / sliced_threads=0 / nr=0 / decimate=1 / interlaced=0 / bluray_compat=0 / constrained_intra=0 / bframes=10 / b_pyramid=2 / b_adapt=2 / b_bias=0 / direct=3 / weightb=1 / open_gop=0 / weightp=2 / keyint=240 / keyint_min=24 / scenecut=40 / intra_refresh=0 / rc_lookahead=100 / rc=2pass / mbtree=1 / bitrate=1940 / ratetol=1.0 / qcomp=0.60 / qpmin=0 / qpmax=69 / qpstep=4 / cplxblur=20.0 / qblur=0.5 / vbv_maxrate=50000 / vbv_bufsize=62500 / nal_hrd=none / filler=0 / ip_ratio=1.40 / aq=1:0.80
Language : English
Default : Yes
Forced : No
Color range : Limited
Color primaries : BT.709
Matrix coefficients : BT.709
Audio #1
ID : 2
Format : AC-3
Format/Info : Audio Coding 3
Commercial name : Dolby Digital
Codec ID : A_AC3
Duration : 2 h 9 min
Bit rate mode : Constant
Bit rate : 384 kb/s
Channel(s) : 6 channels
Channel layout : L R C LFE Ls Rs
Sampling rate : 48.0 kHz
Frame rate : 31.250 FPS (1536 SPF)
Bit depth : 32 bits
Compression mode : Lossy
Stream size : 356 MiB (12%)
Title : DUB | [iTunes]
Language : Russian
Service kind : Complete Main
Default : Yes
Forced : No
Audio #2
ID : 3
Format : AC-3
Format/Info : Audio Coding 3
Commercial name : Dolby Digital
Codec ID : A_AC3
Duration : 2 h 9 min
Bit rate mode : Constant
Bit rate : 384 kb/s
Channel(s) : 6 channels
Channel layout : L R C LFE Ls Rs
Sampling rate : 48.0 kHz
Frame rate : 31.250 FPS (1536 SPF)
Bit depth : 32 bits
Compression mode : Lossy
Stream size : 356 MiB (12%)
Title : DUB | [iTunes]
Language : Ukrainian
Service kind : Complete Main
Default : No
Forced : No
Audio #3
ID : 4
Format : AC-3
Format/Info : Audio Coding 3
Commercial name : Dolby Digital
Codec ID : A_AC3
Duration : 2 h 9 min
Bit rate mode : Constant
Bit rate : 448 kb/s
Channel(s) : 6 channels
Channel layout : L R C LFE Ls Rs
Sampling rate : 48.0 kHz
Frame rate : 31.250 FPS (1536 SPF)
Bit depth : 32 bits
Compression mode : Lossy
Stream size : 416 MiB (14%)
Title : Original
Language : English
Service kind : Complete Main
Default : No
Forced : No
Text #1
ID : 5
Format : UTF-8
Codec ID : S_TEXT/UTF8
Codec ID/Info : UTF-8 Plain Text
Duration : 2 h 5 min
Bit rate : 13 b/s
Count of elements : 267
Stream size : 12.5 KiB (0%)
Title : Forced [HDRezka Studio]
Language : Russian
Default : No
Forced : No
Text #2
ID : 6
Format : UTF-8
Codec ID : S_TEXT/UTF8
Codec ID/Info : UTF-8 Plain Text
Duration : 2 h 5 min
Bit rate : 105 b/s
Count of elements : 1686
Stream size : 97.4 KiB (0%)
Title : Full [Enigma]
Language : Russian
Default : No
Forced : No
Text #3
ID : 7
Format : UTF-8
Codec ID : S_TEXT/UTF8
Codec ID/Info : UTF-8 Plain Text
Duration : 2 h 6 min
Bit rate : 106 b/s
Count of elements : 1702
Stream size : 98.8 KiB (0%)
Title : Full (FOCS)
Language : Russian
Default : No
Forced : No
Text #4
ID : 8
Format : UTF-8
Codec ID : S_TEXT/UTF8
Codec ID/Info : UTF-8 Plain Text
Duration : 2 h 5 min
Bit rate : 14 b/s
Count of elements : 262
Stream size : 13.3 KiB (0%)
Title : Forced [HDRezka Studio]
Language : Ukrainian
Default : No
Forced : No
Text #5
ID : 9
Format : UTF-8
Codec ID : S_TEXT/UTF8
Codec ID/Info : UTF-8 Plain Text
Duration : 1 h 40 min
Bit rate : 6 b/s
Count of elements : 175
Stream size : 4.56 KiB (0%)
Title : Forced
Language : English
Default : No
Forced : No
Text #6
ID : 10
Format : UTF-8
Codec ID : S_TEXT/UTF8
Codec ID/Info : UTF-8 Plain Text
Duration : 2 h 1 min
Bit rate : 57 b/s
Count of elements : 1447
Stream size : 50.9 KiB (0%)
Title : Full
Language : English
Default : No
Forced : No
Text #7
ID : 11
Format : UTF-8
Codec ID : S_TEXT/UTF8
Codec ID/Info : UTF-8 Plain Text
Duration : 2 h 6 min
Bit rate : 60 b/s
Count of elements : 1646
Stream size : 56.2 KiB (0%)
Title : SDH
Language : English
Default : No
Forced : No
Menu
00:00:00.000 : :Chapter 01
00:06:19.087 : :Chapter 02
00:13:57.045 : :Chapter 03
00:23:45.341 : :Chapter 04
00:33:02.314 : :Chapter 05
00:38:05.366 : :Chapter 06
00:44:37.174 : :Chapter 07
00:50:53.717 : :Chapter 08
00:55:12.392 : :Chapter 09
00:59:20.557 : :Chapter 10
01:03:25.802 : :Chapter 11
01:11:05.678 : :Chapter 12
01:17:47.538 : :Chapter 13
01:23:29.338 : :Chapter 14
01:31:24.938 : :Chapter 15
01:39:59.160 : :Chapter 16
01:46:10.656 : :Chapter 17
01:54:12.763 : :Chapter 18
01:59:40.298 : :Chapter 19
02:04:22.121 : :Chapter 20
Релиз от: &
Автор релиза:
pb.wtf



Скачать Мавританец через торрент https://i114.fastpic.ru/big/2021/0502/3a/d88177a2c04196e220d3de0c42b1a23a.png Скачать, смотреть онлайн Мавританец бесплантно в хорошем качестве Описание: Не получив официальных обвинений и возможности защиты в суде, Мохаммед Ульд Слахи провел в тюрьме Гуантанамо более 6 лет. ... 10 10 2
Торрент: Зарегистрирован [2021-05-02 08:26] · скачан: 241 раз
Статус: √ проверено
Размер: 2.86 GB
Как cкачать? Как скачать Мавританец через торрент | UTorrent

% Раздел Тема Автор DL S | L
Фильмы 2021 [DVDrip, WEB-DLRip, HDrip] (DUB, MVO) [ 2.05 GB ] Мавританец / The Mauritanian [2021 WEB-DLRip-AVC] [MVO] [HDRezka Studio] от MediaBit Lithuania Скачать
6 | 0

28-11-2019 20:33  

Отключить всю рекламу на сайте

    Дорогой пользователь! Огромная просьба, поблагодарите релизера, оцените раздачу и оставьте свои комментарий, если Вы скачали Мавританец через торрент бесплатно!
    Комментировать посты могут только пользователи прошедшие не сложную регистрацию
    Показать сообщения:    

    Мавританец через торрент
    Скачать бесплатно Мавританец
    Мавританец скачать торрент
    Мавританец смотреть онлайн
    Cкачать фильм Мавританец бесплатно
    Мавританец скачать торрент в хорошем качестве
    Мавританец смотреть онлайн бесплатно в хорошем качестве


    Вы не можете начинать темы
    Вы не можете отвечать на сообщения
    Вы не можете редактировать свои сообщения
    Вы не можете удалять свои сообщения
    Вы не можете голосовать в опросах
    Вы не можете прикреплять файлы к сообщениям
    Вы можете скачивать файлы