1 сезон

1 сезон

iTunes

1

iTunes

Кинопоиск HD

iTunes

13

1 сезон

RePack

30

Deluxe

ВАЖНО

ИГРА 18+

pack

RePack

MK11
pack

Легкие деньги

RePack

jed

RePack

fifa19

RePack

RDR2

RePack

NEED FOR SPEED™ PAYBACK

4 сезон

9 сезон

Бесстыжие 9 сезон

Все сериалы

все сериалы на PB.wtf

RePack

FAR CRY 5
  
Magnet ссылка

Игра на понижение / The Big Short (Адам МакКей) [2015 г., драма, комедия, биография, WEB-DLRip 720p / 60 FPS, Дубляж] (Open Matte) от R.G. HD-Films pb.wtf

Игра на понижение через торрент pb.wtf

Раздают: 11 [ 0 KB/s ]
Размер: 5.45 GB | Добавлен: 11 д. назад | Торрент скачан:46 раз
Скачать  

02-05-2021 08:40 Игра на понижение Скачать торрент  

Игра на понижение / The Big Short
Год выпуска: 2015
Страна: США
Жанр: драма, комедия, биография
Продолжительность: 02:04:55
Перевод: Дубляж BD CEE
Субтитры: Вшитые (softsub) Forced надписи

Режиссер: Адам МакКей

Бюджет: $28 000 000
Премьера в мире: 12 ноября 2015

rating

В ролях: Кристиан Бэйл, Стив Карелл, Райан Гослинг, Брэд Питт, Мелисса Лео, Хамиш Линклэйтер, Джон Магаро, Рейф Сполл, Джереми Стронг, Мариса Томей, Финн Уиттрок, Стэнли Вонг, Байрон Манн, Трэйси Леттс, Карен Гиллан, Селена Гомес, Макс Гринфилд, Марго Робби, Руди Айзенцопф, Кэйси Гров

Описание: Америка находится на грани экономического кризиса, который накроет все передовые страны мира. Однако главные финансисты страны пока не замечают надвигающейся опасности и уверены, что все абсолютно нормально. Существует всего несколько человек, которые убеждены в том, что совсем скоро наступит финансовый крах. Они сумели вовремя сориентироваться и сыграть на приближающемся кризисе. Объединив свои усилия, эти люди смогли воспользоваться своим шансом и заработали миллионы долларов...

Качество: WEB-DLRip 720p / 60 FPS
Формат: MKV
Видео кодек: H.264
Аудио кодек: AC3
Видео: x264, 1280 x 720 ( 16:9 ), 5857 kbps, 60,000 fps, ( 0.106 bpp)
Аудио#1: Русский, AC-3, 48.0 KHz, 6 ch, 384 Kbps
Релиз от: Автор рипа: slaventi-69
x264 [info]: frame I:1805 Avg QP:16.46 size: 84225
x264 [info]: frame P:104044 Avg QP:17.71 size: 28232
x264 [info]: frame B:343907 Avg QP:20.11 size: 6974
x264 [info]: consecutive B-frames: 2.1% 2.0% 8.3% 19.3% 44.8% 23.5%


Общее
Уникальный идентификатор : 198859267296180806600316317358965780811 (0x959AE6D9C60D1A63D3C31CC1BB91F14B)
Полное имя : F:\60 FPS\The.Big.Short.(2015).WEB-DLRip.720p.(60 Fps).(Open Matte).mkv
Формат : Matroska
Версия формата : Version 4
Размер файла : 5,45 Гбайт
Продолжительность : 2 ч. 4 м.
Общий поток : 6245 Кбит/сек
Название фильма : Игра на понижение / The Big Short (2015) WEB-DLRip 720p (60 Fps) | Open Matte
Дата кодирования : UTC 2021-05-02 08:08:56
Программа кодирования : mkvmerge v56.1.0 ('My Friend') 32-bit
Библиотека кодирования : libebml v1.4.2 + libmatroska v1.6.4

Видео
Идентификатор : 1
Формат : AVC
Формат/Информация : Advanced Video Codec
Профиль формата : High@L4.1
Настройки формата : CABAC / 8 Ref Frames
Параметр CABAC формата : Да
Параметр RefFrames формата : 8 кадров
Идентификатор кодека : V_MPEG4/ISO/AVC
Продолжительность : 2 ч. 4 м.
Битрейт : 5857 Кбит/сек
Ширина : 1280 пикселей
Высота : 720 пикселей
Соотношение сторон : 16:9
Режим частоты кадров : Постоянный
Частота кадров : 60,000 кадров/сек
Цветовое пространство : YUV
Субдискретизация насыщенности : 4:2:0
Битовая глубина : 8 бит
Тип развёртки : Прогрессивная
Бит/(Пиксели*Кадры) : 0.106
Размер потока : 5,11 Гбайт (94%)
Заголовок : slaventi-69 ( R.G. HD-Films | 60 fps )
Библиотека кодирования : x264 core 130 r2273 b3065e6
Настройки программы : cabac=1 / ref=9 / deblock=1:0:0 / analyse=0x3:0x133 / me=umh / subme=9 / psy=1 / psy_rd=1.00:0.00 / mixed_ref=1 / me_range=32 / chroma_me=1 / trellis=2 / 8x8dct=1 / cqm=0 / deadzone=21,11 / fast_pskip=0 / chroma_qp_offset=-2 / threads=10 / lookahead_threads=4 / sliced_threads=0 / nr=0 / decimate=1 / interlaced=0 / bluray_compat=0 / constrained_intra=0 / bframes=5 / b_pyramid=1 / b_adapt=2 / b_bias=0 / direct=1 / weightb=1 / open_gop=0 / weightp=2 / keyint=600 / keyint_min=23 / scenecut=40 / intra_refresh=0 / rc=crf / mbtree=0 / crf=17.2 / qcomp=0.60 / qpmin=0 / qpmax=69 / qpstep=4 / ip_ratio=1.40 / pb_ratio=1.30 / aq=1:1.00
Язык : English
Default : Да
Forced : Нет

Аудио
Идентификатор : 2
Формат : AC-3
Формат/Информация : Audio Coding 3
Коммерческое название : Dolby Digital
Идентификатор кодека : A_AC3
Продолжительность : 2 ч. 4 м.
Вид битрейта : Постоянный
Битрейт : 384 Кбит/сек
Каналы : 6 каналов
Channel layout : L R C LFE Ls Rs
Частота : 48,0 КГц
Частота кадров : 31,250 кадров/сек (1536 SPF)
Битовая глубина : 16 бит
Метод сжатия : С потерями
Размер потока : 343 Мбайт (6%)
Заголовок : DUB Blu-ray CEE
Язык : Russian
ServiceKind/String : Complete Main
Default : Да
Forced : Нет

Меню
00:00:00.000 : Chapter 01
00:09:01.480 : Chapter 02
00:15:08.800 : Chapter 03
00:18:16.280 : Chapter 04
00:24:55.680 : Chapter 05
00:27:39.160 : Chapter 06
00:35:52.360 : Chapter 07
00:41:09.080 : Chapter 08
00:47:34.800 : Chapter 09
00:54:41.720 : Chapter 10
00:59:37.160 : Chapter 11
01:07:58.800 : Chapter 12
01:13:53.920 : Chapter 13
01:17:38.200 : Chapter 14
01:26:12.360 : Chapter 15
01:30:44.560 : Chapter 16
01:37:07.080 : Chapter 17
01:41:11.240 : Chapter 18
01:45:05.400 : Chapter 19
01:50:32.840 : Chapter 20
01:58:40.440 : Chapter 21
02:04:55.200 : Chapter 22

Просьба к переливающим на другие сайты, в оформлении указывайте пожалуйста авторство группы R.G. HD-Films pb.wtf



Скачать Игра на понижение через торрент https://a.radikal.ru/a36/2105/bc/072748e3bc20.png Скачать фильм Игра на понижение через торрент бесплантно в хорошем качестве Описание: Америка находится на грани экономического кризиса, который накроет все передовые страны мира. Однако главные финансисты страны ... 10 10 1
Торрент: Зарегистрирован [2021-05-02 08:40] · скачан: 46 раз
Статус: √ проверено
Размер: 5.45 GB
Как cкачать? Как скачать Игра на понижение через торрент | UTorrent

28-11-2019 20:33  

Отключить всю рекламу на сайте

    Дорогой пользователь! Огромная просьба, поблагодарите релизера, оцените раздачу и оставьте свои комментарий, если Вы скачали Игра на понижение через торрент бесплатно! Внесите свою лепту в развитие PiratBit!
    Комментировать посты могут только пользователи прошедшие не сложную регистрацию
    Показать сообщения:    

    Игра на понижение через торрент
    Скачать бесплатно Игра на понижение
    Игра на понижение скачать торрент
    Игра на понижение смотреть онлайн
    Cкачать фильм Игра на понижение бесплатно
    Игра на понижение скачать торрент в хорошем качестве
    Игра на понижение смотреть онлайн бесплатно в хорошем качестве


    Вы не можете начинать темы
    Вы не можете отвечать на сообщения
    Вы не можете редактировать свои сообщения
    Вы не можете удалять свои сообщения
    Вы не можете голосовать в опросах
    Вы не можете прикреплять файлы к сообщениям
    Вы можете скачивать файлы