Всегда рабочее зеркало без VPN и Proxy просто перед .vidak.icu напиши любое слово или цифру, Пример http://6tai.vidak.icu

Лицензия

MVO

1 сезон

1

1 сезон

iTunes

1 сезон

13

1 сезон

Deluxe

pack

Рекомендуем

Repack

30

ВАЖНО

RePack

MK11

RePack

jed

RePack

fifa19

RePack

RDR2

RePack

NEED FOR SPEED™ PAYBACK

Кинопоиск HD

6 сезон

 Острые козырьки 6 сезон

Все сериалы

все сериалы на PB.wtf

RePack

FAR CRY 5
  
Magnet ссылка

Том и Джерри / Tom and Jerry (Тим Стори) [2021, Комедия, приключения, семейный, мультфильм, BDRip-AVC] DUB [iTunes] pb.wtf

Том и Джерри через торрент pb.wtf

Раздают: 1 [ 0 KB/s ]
Размер: 2.63 GB | Добавлен: 1 год 3 мес. назад | Торрент скачан:295 раз
Смотреть онлайн Том и Джерри | Скачать    Ребята, помогите собрать деньги на оплату серверов!!!

02-05-2021 09:22 Том и Джерри Скачать торрент  

Том и Джерри | Tom and Jerry
Год выпуска: 2021
Страна: США
Студия: Hanna-Barbera, Lin Pictures, Metro-Goldwyn-Mayer
Жанр: Комедия, приключения, семейный, мультфильм
Продолжительность: 01:41:04
Перевод: Дублированный | iTunes
Субтитры: Русские (форсированные, полные), английские (полные, SDH)

Режиссер: Тим Стори

rating

В ролях: Хлоя Грейс Морец, Майкл Пенья, Джордан Болджер, Роб Делани, Пэтси Ферран, Паллави Шарда, Колин Жост, Соми Гуха, Аджай Чабра, Патрик Полетти, Дженис Ахерн, Камилла Арведсон, Кен Жонг, Джо Боун, Брайан Бовелл

Описание: После того, как Тома и Джерри выставляют за дверь, бездомные кот с мышонком решают разбежаться в разные стороны, чтобы каждый начал жизнь с чистого листа. Однако их пути вновь пересекаются… на Манхэттене. Джерри поселяется в самом роскошном отеле города, где вот-вот должна состояться «свадьба века». Новая сотрудница заведения Кайла, которой поручено решить «проблему с мышами», нанимает для этой цели Тома. Безумные кошки-мышки теперь угрожают и свадьбе, и карьере девушки, и самому отелю. Но вскоре герои оказываются перед лицом куда большей проблемы…

Качество: BDRip-AVC
Формат: MKV

Видео: 1024x552 (1.85:1), 23.976 fps, MPEG-4 AVC ~ 2885 Kbps avg, 0.213 bit/pixel
Аудио: AC3, 48 kHz, 6 ch, ~384.00 kbps avg | русский | iTunes
Аудио: AC3, 48 kHz, 6 ch, ~448.00 kbps avg | английский |
скриншот  скриншот  скриншот  скриншот  скриншот  

x264 [info]: frame I:1990 Avg QP:15.68 size:107787
x264 [info]: frame P:35873 Avg QP:18.22 size: 29501
x264 [info]: frame B:107548 Avg QP:19.99 size: 8504
x264 [info]: consecutive B-frames: 4.4% 3.7% 11.9% 26.2% 18.3% 27.9% 4.5% 1.5% 0.7% 0.3% 0.2% 0.3% 0.2%
*****************************************

Общее
Уникальный идентификатор : 74731034193328299189860805655034258951 (0x3838AC7482768F157A10D29802AAE607)
Полное имя : Tom.and.Jerry.2021.BDRip.2.63Gb.MegaPeer.x264.mkv
Формат : Matroska
Версия формата : Version 4
Размер файла : 2,63 Гбайт
Продолжительность : 1 ч. 41 м.
Общий поток : 3 720 Кбит/сек
Название фильма : Том и Джерри / Tom and Jerry (2021)
Дата кодирования : UTC 2021-04-30 18:44:20
Программа кодирования : mkvmerge v47.0.0 ('Black Flag') 64-bit
Библиотека кодирования : libebml v1.3.10 + libmatroska v1.5.2
Обложка : Yes
Attachments : cover.jpg

Видео
Идентификатор : 1
Формат : AVC
Формат/Информация : Advanced Video Codec
Профиль формата : [email protected]
Настройки формата : CABAC / 11 Ref Frames
Параметр CABAC формата : Да
Параметр RefFrames формата : 11 кадров
Идентификатор кодека : V_MPEG4/ISO/AVC
Продолжительность : 1 ч. 41 м.
Битрейт : 2 885 Кбит/сек
Ширина : 1 024 пикселя
Высота : 552 пикселя
Соотношение сторон : 1,85:1
Режим частоты кадров : Постоянный
Частота кадров : 23,976 кадра/сек
Цветовое пространство : YUV
Субдискретизация насыщенности : 4:2:0
Битовая глубина : 8 бит
Тип развёртки : Прогрессивная
Бит/(Пиксели*Кадры) : 0.213
Размер потока : 2,04 Гбайт (78%)
Заголовок : [email protected]
Библиотека кодирования : x264 core 161 r3018 db0d417
Настройки программы : cabac=1 / ref=11 / deblock=1:-2:-2 / analyse=0x3:0x113 / me=umh / subme=11 / psy=1 / psy_rd=1.00:0.00 / mixed_ref=1 / me_range=48 / chroma_me=1 / trellis=2 / 8x8dct=1 / cqm=0 / deadzone=21,11 / fast_pskip=0 / chroma_qp_offset=-2 / threads=17 / lookahead_threads=4 / sliced_threads=0 / nr=0 / decimate=0 / interlaced=0 / bluray_compat=0 / constrained_intra=0 / bframes=12 / b_pyramid=2 / b_adapt=2 / b_bias=0 / direct=3 / weightb=1 / open_gop=0 / weightp=2 / keyint=240 / keyint_min=24 / scenecut=40 / intra_refresh=0 / rc_lookahead=40 / rc=2pass / mbtree=0 / bitrate=2885 / ratetol=1.0 / qcomp=0.60 / qpmin=0 / qpmax=69 / qpstep=4 / cplxblur=20.0 / qblur=0.5 / vbv_maxrate=50000 / vbv_bufsize=62500 / nal_hrd=none / filler=0 / ip_ratio=1.40 / pb_ratio=1.30 / aq=1:1.10
Язык : English
Default : Да
Forced : Нет

Аудио #1
Идентификатор : 2
Формат : AC-3
Формат/Информация : Audio Coding 3
Коммерческое название : Dolby Digital
Идентификатор кодека : A_AC3
Продолжительность : 1 ч. 41 м.
Вид битрейта : Постоянный
Битрейт : 384 Кбит/сек
Каналы : 6 каналов
Channel layout : L R C LFE Ls Rs
Частота : 48,0 КГц
Частота кадров : 31,250 кадров/сек (1536 SPF)
Метод сжатия : С потерями
Размер потока : 278 Мбайт (10%)
Заголовок : DUB | iTunes
Язык : Russian
Service kind : Complete Main
Default : Да
Forced : Да

Аудио #2
Идентификатор : 3
Формат : AC-3
Формат/Информация : Audio Coding 3
Коммерческое название : Dolby Digital
Идентификатор кодека : A_AC3
Продолжительность : 1 ч. 41 м.
Вид битрейта : Постоянный
Битрейт : 448 Кбит/сек
Каналы : 6 каналов
Channel layout : L R C LFE Ls Rs
Частота : 48,0 КГц
Частота кадров : 31,250 кадров/сек (1536 SPF)
Метод сжатия : С потерями
Размер потока : 324 Мбайт (12%)
Язык : English
Service kind : Complete Main
Default : Нет
Forced : Нет

Текст #1
Идентификатор : 4
Формат : UTF-8
Идентификатор кодека : S_TEXT/UTF8
Идентификатор кодека/Информация : UTF-8 Plain Text
Продолжительность : 1 ч. 37 м.
Битрейт : 5 бит/сек
Count of elements : 96
Размер потока : 4,25 Кбайт (0%)
Заголовок : Forced
Язык : Russian
Default : Да
Forced : Да

Текст #2
Идентификатор : 5
Формат : UTF-8
Идентификатор кодека : S_TEXT/UTF8
Идентификатор кодека/Информация : UTF-8 Plain Text
Продолжительность : 1 ч. 40 м.
Битрейт : 105 бит/сек
Count of elements : 1531
Размер потока : 78,0 Кбайт (0%)
Заголовок : Full
Язык : Russian
Default : Нет
Forced : Нет

Текст #3
Идентификатор : 6
Формат : UTF-8
Идентификатор кодека : S_TEXT/UTF8
Идентификатор кодека/Информация : UTF-8 Plain Text
Продолжительность : 1 ч. 40 м.
Битрейт : 79 бит/сек
Count of elements : 1916
Размер потока : 58,6 Кбайт (0%)
Заголовок : Full
Язык : English
Default : Нет
Forced : Нет

Текст #4
Идентификатор : 7
Формат : UTF-8
Идентификатор кодека : S_TEXT/UTF8
Идентификатор кодека/Информация : UTF-8 Plain Text
Продолжительность : 1 ч. 40 м.
Битрейт : 94 бит/сек
Count of elements : 2266
Размер потока : 69,4 Кбайт (0%)
Заголовок : SDH
Язык : English
Default : Нет
Forced : Нет

Меню
00:00:00.000 : :eng: 01
00:05:51.433 : :eng: 02
00:15:26.008 : :eng: 03
00:24:49.112 : :eng: 04
00:31:41.900 : :eng: 05
00:39:37.708 : :eng: 06
00:48:48.257 : :eng: 07
00:58:37.262 : :eng: 08
01:07:21.704 : :eng: 09
01:11:59.856 : :eng: 10
01:22:26.733 : :eng: 11
01:26:17.380 : :eng: 12
01:34:07.850 : :eng: 13
01:41:04.557 : :eng: 14

pb.wtf



Скачать Том и Джерри через торрент https://i114.fastpic.ru/big/2021/0228/bb/08661d63fa1c8072ac989a912c1b1fbb.jpg Скачать, смотреть онлайн Том и Джерри бесплантно в хорошем качестве Описание: После того, как Тома и Джерри выставляют за дверь, бездомные кот с мышонком решают разбежаться в разные стороны, чтобы каждый ... 10 10 6
Торрент: Зарегистрирован [2021-05-02 09:22] · скачан: 295 раз
Статус: √ проверено
Размер: 2.63 GB
Как cкачать? Как скачать Том и Джерри через торрент | UTorrent

% Раздел Тема Автор DL S | L
Мультсериалы [ 1.81 GB ] Том и Джерри в Нью-Йорке / Tom and Jerry in New York / Сезон: 1 / Серии: 1-7 из 7 [2021 Мультфильм WEBRip] [MVO] killermax2013 Скачать
2 | 0
Иностранные мультфильмы [ 1.42 GB ] Том и Джерри / Tom and Jerry [2021 мультфильм BDRip] bober100 Скачать
1 | 0
Иностранные мультфильмы [ 746 MB ] Том и Джерри / Tom and Jerry [2021 мультфильм BDRip] bober100 Скачать
1 | 0
Зарубежные Мультфильмы (BDRip 1080p, 720p, Blu-ray, BD-Remux) [ 22.49 GB ] Том и Джерри / Tom and Jerry [2021 мультфильм BD Remux 1080p] bober100 Скачать
1 | 0
Зарубежные Мультфильмы (BDRip 1080p, 720p, Blu-ray, BD-Remux) [ 13.55 GB ] Том и Джерри / Tom and Jerry [2021 мультфильм BDRip 1080p] bober100 Скачать
2 | 0
Зарубежные Мультфильмы (BDRip 1080p, 720p, Blu-ray, BD-Remux) [ 5.07 GB ] Том и Джерри / Tom and Jerry [2021 мультфильм BDRip 720p] bober100 Скачать
1 | 0
Иностранные мультфильмы [ 1.42 GB ] Том и Джерри / Tom and Jerry [2021 мультфильм BDRip] - Twi7ter Скачать
5 | 0

28-11-2019 20:33  

Отключить вcю реклaмy на сайте

    Дорогой пользователь! Огромная просьба, поблагодарите релизера, оцените раздачу и оставьте свои комментарий, если Вы скачали Том и Джерри через торрент бесплатно!
    Комментировать посты могут только пользователи прошедшие не сложную регистрацию
    Показать сообщения:    

    Том и Джерри через торрент
    Скачать бесплатно Том и Джерри
    Том и Джерри скачать торрент
    Том и Джерри смотреть онлайн
    Cкачать фильм Том и Джерри бесплатно
    Том и Джерри скачать торрент в хорошем качестве
    Том и Джерри смотреть онлайн бесплатно в хорошем качестве


    Вы не можете начинать темы
    Вы не можете отвечать на сообщения
    Вы не можете редактировать свои сообщения
    Вы не можете удалять свои сообщения
    Вы не можете голосовать в опросах
    Вы не можете прикреплять файлы к сообщениям
    Вы можете скачивать файлы