1 сезон

1 сезон

iTunes

1

iTunes

Кинопоиск HD

iTunes

13

1 сезон

RePack

30

Deluxe

ВАЖНО

ИГРА 18+

pack

RePack

MK11
pack

Легкие деньги

RePack

jed

RePack

fifa19

RePack

RDR2

RePack

NEED FOR SPEED™ PAYBACK

4 сезон

9 сезон

Бесстыжие 9 сезон

Все сериалы

все сериалы на PB.wtf

RePack

FAR CRY 5
  
Magnet ссылка

Клуб «Кастет» / Knuckledust (Джеймс Кермак) [2020, Боевик, триллер, BDRip 720p] DUB [iTunes] pb.wtf

Клуб «Кастет» через торрент pb.wtf

Раздают: 7 [ 0.8 KB/s ]
Размер: 6.72 GB | Добавлен: 11 д. назад | Торрент скачан:54 раза
Скачать  

02-05-2021 10:20 Клуб «Кастет» Скачать торрент  

Клуб «Кастет» | Knuckledust
Год выпуска: 2020
Страна: Великобритания, Франция
Студия: Featuristic Films, Head Gear Films, Metrol Technology, OneWorld Entertainment, Project, The, Trigger Films
Жанр: Боевик, триллер
Продолжительность: 01:45:27
Перевод: Дублированный | iTunes
Субтитры: Русские (full), английские

Режиссер: Джеймс Кермак

rating

В ролях: Оливье Рихтерс, Кейт Дики, Филип Дэвис, Эми Бэйли, Мо Данфорд, Гетин Энтони, Алекс Фернс, Джеми Уинстон, Гийом Делони, Себастьен Фукан

Описание: Спецгруппа полицейских врывается в элитный подземный клуб «Knuckledust» и обнаруживает семь уровней подземелья, заполненных трупами бойцов, бандитов и убийц. Среди горы мертвецов найден единственный выживший в этом аду — избитый боец по кличке Hard Eight. У полицейских есть всего лишь полтора часа, чтобы допросить этого человека и выяснить, кто же он на самом деле — жертва или убийца?

Качество: BDRip 720p
Формат: MKV

Видео: MPEG-4 AVC, 1280x690, 8093 Кbit/s, 23.976 fps
Аудио#1: 48 kHz, AC3, 5.1, 384 Kbps | iTunes | RUS |
Аудио#2: 48 kHz, AC3, 5.1, 640 Kbps | Оригинал | ENG |
скриншот  скриншот  скриншот  скриншот  скриншот  

General
Unique ID : 293514978231679693533411172896112707550 (0xDCD0EDB6C7C16483D0A495C9176507DE)
Complete name : F:VideoKnuckledust.2020.BDRip.720p.seleZen.mkv
Format : Matroska
Format version : Version 4
File size : 6.72 GiB
Duration : 1 h 45 min
Overall bit rate : 9 090 kb/s
Movie name : Knuckledust 2020 from seleZen
Encoded date : UTC 2021-04-30 23:37:14
Writing application : mkvmerge v55.0.0 ('Waiting For Space') 64-bit
Writing library : libebml v1.4.2 + libmatroska v1.6.4

Video
ID : 1
Format : AVC
Format/Info : Advanced Video Codec
Format profile : High@L4.1
Format settings : CABAC / 9 Ref Frames
Format settings, CABAC : Yes
Format settings, Reference : 9 frames
Codec ID : V_MPEG4/ISO/AVC
Duration : 1 h 45 min
Bit rate : 8 093 kb/s
Width : 1 280 pixels
Height : 690 pixels
Display aspect ratio : 1.85:1
Frame rate mode : Constant
Frame rate : 23.976 (24000/1001) FPS
Color space : YUV
Chroma subsampling : 4:2:0
Bit depth : 8 bits
Scan type : Progressive
Bits/(Pixel*Frame) : 0.382
Stream size : 5.96 GiB (89%)
Writing library : x264 core 146 -from seleZen
Encoding settings : cabac=1 / ref=9 / deblock=1:-2:-2 / analyse=0x3:0x133 / me=umh / subme=10 / psy=1 / psy_rd=1.09:0.09 / mixed_ref=1 / me_range=32 / chroma_me=1 / trellis=2 / 8x8dct=1 / cqm=0 / deadzone=21,11 / fast_pskip=0 / chroma_qp_offset=-3 / threads=48 / lookahead_threads=5 / sliced_threads=0 / nr=0 / decimate=0 / interlaced=0 / bluray_compat=0 / constrained_intra=0 / bframes=9 / b_pyramid=2 / b_adapt=2 / b_bias=0 / direct=1 / weightb=1 / open_gop=0 / weightp=2 / keyint=240 / keyint_min=23 / scenecut=40 / intra_refresh=0 / rc_lookahead=50 / rc=crf / mbtree=0 / crf=16.8 / qcomp=0.60 / qpmin=0 / qpmax=51 / qpstep=4 / vbv_maxrate=50000 / vbv_bufsize=62500 / crf_max=0.0 / nal_hrd=none / filler=0 / ip_ratio=1.40 / pb_ratio=1.30 / aq=3:0.80
Language : English
Default : Yes
Forced : No

Audio #1
ID : 2
Format : AC-3
Format/Info : Audio Coding 3
Commercial name : Dolby Digital
Codec ID : A_AC3
Duration : 1 h 45 min
Bit rate mode : Constant
Bit rate : 384 kb/s
Channel(s) : 6 channels
Channel layout : L R C LFE Ls Rs
Sampling rate : 48.0 kHz
Frame rate : 31.250 FPS (1536 SPF)
Compression mode : Lossy
Stream size : 290 MiB (4%)
Title : iTunes
Language : Russian
Service kind : Complete Main
Default : Yes
Forced : Yes

Audio #2
ID : 3
Format : AC-3
Format/Info : Audio Coding 3
Commercial name : Dolby Digital
Codec ID : A_AC3
Duration : 1 h 45 min
Bit rate mode : Constant
Bit rate : 640 kb/s
Channel(s) : 6 channels
Channel layout : L R C LFE Ls Rs
Sampling rate : 48.0 kHz
Frame rate : 31.250 FPS (1536 SPF)
Compression mode : Lossy
Stream size : 484 MiB (7%)
Title : Original
Language : English
Service kind : Complete Main
Default : No
Forced : No

Text #1
ID : 4
Format : UTF-8
Codec ID : S_TEXT/UTF8
Codec ID/Info : UTF-8 Plain Text
Duration : 1 h 41 min
Bit rate : 88 b/s
Count of elements : 1206
Stream size : 65.9 KiB (0%)
Title : Full
Language : Russian
Default : No
Forced : No

Text #2
ID : 5
Format : UTF-8
Codec ID : S_TEXT/UTF8
Codec ID/Info : UTF-8 Plain Text
Duration : 1 h 43 min
Bit rate : 62 b/s
Count of elements : 1563
Stream size : 47.0 KiB (0%)
Title : SDH
Language : English
Default : No
Forced : No

Menu
00:00:00.000 : en:Глава 01
00:08:52.282 : en:Глава 02
00:17:08.319 : en:Глава 03
00:25:55.262 : en:Глава 04
00:34:57.387 : en:Глава 05
00:43:02.455 : en:Глава 06
00:53:59.528 : en:Глава 07
01:03:49.159 : en:Глава 08
01:13:14.348 : en:Глава 09
01:22:03.836 : en:Глава 10
01:30:37.223 : en:Глава 11
01:39:01.477 : en:Глава 12

pb.wtf



Скачать Клуб «Кастет» через торрент https://b.radikal.ru/b00/2104/86/31a680a1d907.jpg Скачать фильм Клуб «Кастет» через торрент бесплантно в хорошем качестве Описание: Спецгруппа полицейских врывается в элитный подземный клуб «Knuckledust» и обнаруживает семь уровней подземелья, заполненных ... 10 10 3
Торрент: Зарегистрирован [2021-05-02 10:20] · скачан: 54 раз
Статус: √ проверено
Размер: 6.72 GB
Как cкачать? Как скачать Клуб «Кастет» через торрент | UTorrent

% Раздел Тема Автор DL S | L
Фильмы [HD 720p, 1080p] (Хороший звук DUB, MVO) [ 15.6 GB ] Клуб «Кастет» / Knuckledust [2020 BDRip 1080p] bober100 Скачать
4 | 0
Фильмы (Blu-ray, BD-Remux, HDDVD) [ 24.89 GB ] Клуб «Кастет» / Knuckledust [2020 BD Remux 1080p] bober100 Скачать
3 | 0
Фильмы 2019-2020 [DVDrip, WEB-DLRip, HDrip] (DUB, MVO) [ 1.46 GB ] Клуб «Кастет» / Knuckledust [2020 BDRip] bober100 Скачать
6 | 0
Фильмы 2019-2020 [DVDrip, WEB-DLRip, HDrip] (DUB, MVO) [ 2.04 GB ] Клуб «Кастет» / Knuckledust [2020 HDRip-AVC] от MediaBit Lithuania Скачать
8 | 0
Фильмы (WEB-DL 720p, 1080p) [ 6.72 GB ] Клуб «Кастет» / Knuckledust [2020 WEB-DL 1080p] [AMAZON Version] bober100 Скачать
3 | 0
Фильмы 2019-2020 [DVDrip, WEB-DLRip, HDrip] (DUB, MVO) [ 1.41 GB ] Клуб «Кастет» / Knuckledust [2020 BDRip] - Twi7ter Скачать
22 | 0
Фильмы (WEB-DL 720p, 1080p) [ 3.56 GB ] Клуб «Кастет» / Knuckledust [2020 WEB-DL 720p] [AMAZON Version] bober100 Скачать
4 | 0

28-11-2019 20:33  

Отключить всю рекламу на сайте

    Дорогой пользователь! Огромная просьба, поблагодарите релизера, оцените раздачу и оставьте свои комментарий, если Вы скачали Клуб «Кастет» через торрент бесплатно! Внесите свою лепту в развитие PiratBit!
    Комментировать посты могут только пользователи прошедшие не сложную регистрацию
    Показать сообщения:    

    Клуб «Кастет» через торрент
    Скачать бесплатно Клуб «Кастет»
    Клуб «Кастет» скачать торрент
    Клуб «Кастет» смотреть онлайн
    Cкачать фильм Клуб «Кастет» бесплатно
    Клуб «Кастет» скачать торрент в хорошем качестве
    Клуб «Кастет» смотреть онлайн бесплатно в хорошем качестве


    Вы не можете начинать темы
    Вы не можете отвечать на сообщения
    Вы не можете редактировать свои сообщения
    Вы не можете удалять свои сообщения
    Вы не можете голосовать в опросах
    Вы не можете прикреплять файлы к сообщениям
    Вы можете скачивать файлы