1 сезон

3 сезон

iTunes

1

iTunes

DUB Netflix

iTunes

13

1 сезон

RePack

30

Deluxe

pack

Легкие деньги

ВАЖНО

ИГРА 18+

pack

RePack

MK11

RePack

jed

RePack

fifa19

RePack

RDR2

RePack

NEED FOR SPEED™ PAYBACK

4 сезон

9 сезон

Бесстыжие 9 сезон

Все сериалы

все сериалы на PB.wtf

RePack

FAR CRY 5

Anonymous, добрый день, мы не успеваем до 1 числа собрать деньги на оплату серверов, помогите нам пожалуйста в это трудное время. В качестве благодарности мы отключим Вам всю рекламу на сайте (укажите свой ник в строку Ваше имя)!

×
  
Magnet ссылка

ИП Пирогова / Сезон: 4 / Серии: 1-4 из 20 (Дарья Балинова) [2021, Комедия, WEBRip 720p] pb.wtf

ИП Пирогова через торрент pb.wtf

Раздают: 1 [ 0 KB/s ]
Размер: 2.11 GB | Добавлен: 1 мес. 10 д. назад | Торрент скачан:39 раз
Скачать  

02-05-2021 11:09 ИП Пирогова Скачать торрент  

ИП Пирогова
Год выпуска: 2021
Страна: Россия
Жанр: Комедия
Продолжительность: ~ 00:25:00
Перевод: Не требуется
Субтитры: отсутствуют

Режиссер: Дарья Балинова

rating

В ролях: Елена Подкаминская, Данила Дунаев, Александр Панкратов-Чёрный, Александр Константинов, Ксения Теплова, Елена Валюшкина, Дмитрий Лысенков, Алексей Агранович, Сергей Стёпин, Галина Безрук, Василина Юсковец, Андрей Козлов, Андрей Козлов (II), Мария Баева, Роман Курцын, Игорь Юдин

Описание: Оставив родную кондитерскую «Пирогова» на попечении семьи, Вера уезжает в Санкт-Петербург. Совместно с Денисом Алексеевичем и его сетью «Бальзак-Гурмэ» она открывает новое кафе-пекарню. Дела заведения идут в гору, но мысли Веры все чаще возвращаются в Москву. Она вспоминает прошлое и скучает по дому, семье, своему маленькому бизнесу и, конечно, по Андрею. Тем временем жизнь Вериной семьи не стоит на месте: Саша и Валя готовятся к свадьбе, попутно познавая тонкости родительства с сыном Эдгаром. А Дед вовсю налаживает личную жизнь с новой пассией по имени Марьяна.

Качество: WEBRip 720p
Формат: MKV

Видео: MPEG-4 AVC, ~ 3000 Кбит/с, 1280x720, 25 кадр/с
Аудио: 48.0 kHz, AC3 Dolby Digital, 2/0 (L,R) ch, ~ 192 kbps
скриншот  скриншот  скриншот  скриншот  скриншот  

General
Unique ID : 214996179044345944543719090111405435644 (0xA1BEC206B83E7D94B816C5230FED2AFC)
Complete name : H:\fiiles x\ИП Пирогова.04.2021.WEB-DL 720p.Files-x\02. ИП Пирогова.04.2021.WEB-DL 720p.Files-x.mkv
Format : Matroska
File size : 552 MiB
Duration : 24mn 23s
Overall bit rate : 3 162 Kbps
Encoded date : UTC 2021-04-29 03:37:05
Writing application : mkvmerge v7.8.0 ('River Man') 32bit built on Apr 3 2015 12:11:22
Writing library : libebml v1.3.1 + libmatroska v1.4.2

Video
ID : 1
Format : AVC
Format/Info : Advanced Video Codec
Format profile : High@L3.1
Format settings, CABAC : Yes
Format settings, ReFrames : 1 frame
Codec ID : V_MPEG4/ISO/AVC
Duration : 24mn 23s
Bit rate mode : Variable
Bit rate : 2 907 Kbps
Maximum bit rate : 3 000 Kbps
Width : 1 280 pixels
Height : 720 pixels
Display aspect ratio : 16:9
Frame rate : 25.000 fps
Color space : YUV
Chroma subsampling : 4:2:0
Bit depth : 8 bits
Scan type : Progressive
Bits/(Pixel*Frame) : 0.126
Stream size : 507 MiB (92%)

Audio
ID : 2
Format : AC-3
Format/Info : Audio Coding 3
Mode extension : CM (complete main)
Codec ID : A_AC3
Duration : 24mn 23s
Bit rate mode : Constant
Bit rate : 192 Kbps
Channel(s) : 2 channels
Channel positions : Front: L R
Sampling rate : 44.1 KHz
Bit depth : 16 bits
Compression mode : Lossy
Delay relative to video : 9ms
Stream size : 33.5 MiB (6%)

Когда раздача ведётся путём добавления новых серий, при каждом добавлении создётся новый торрент. Чтобы начать докачку новой серии, пользователям необходимо сделать следующее:
(1) остановить скачивание,
(2) удалить старый торрент у себя из клиента (старые серии удалять не надо),
(3) скачать новый торрент и запустить его у себя в клиенте вместо старого, при этом указать клиенту путь в старую папку, куда и должно происходить скачивание новых серий.
Ваш клиент при этом должен произвести хеширование (проверку) старой папки (если не производит сам - помогите ему сделать это), и будет докачивать только те серии, которых у вас ещё нет. Старые серии при этом не удаляются, а продолжают раздаваться!
Eсли вы уже удалили старые серии, то предотвратить повторную закачку старых серий можно, отжав галочку в соответсвующих местах при запуске нового торрента. По возможности, желательно не удалять старые серии как можно дольше, чтобы релизер не столько продолжал раздавать старые серии, а смог сконцентрироваться на новых.
pb.wtf



Скачать ИП Пирогова через торрент https://i109.fastpic.ru/big/2019/0210/61/90f4af9a33464428545a521d52cb0a61.jpg Скачать фильм ИП Пирогова через торрент бесплантно в хорошем качестве Описание: Оставив родную кондитерскую «Пирогова» на попечении семьи, Вера уезжает в Санкт-Петербург. Совместно с Денисом Алексеевичем и его ... 8.8 10 8
Торрент: Зарегистрирован [2021-05-09 08:06] · скачан: 39 раз
Статус: √ проверено
Размер: 2.11 GB
Как cкачать? Как скачать ИП Пирогова через торрент | UTorrent

% Раздел Тема Автор DL S | L
TNT serials [ 4.12 GB ] ИП Пирогова / Сезон: 4 / Серии: 1-14 из 20 [2021 WEBRip] bober100 Скачать
5 | 5
TNT serials [ 4.1 GB ] ИП Пирогова / Сезон: 4 / Серии: 1-14 из 20 [2021 WEBRip-AVC] bober100 Скачать
2 | 1

28-11-2019 20:33  

Отключить всю рекламу на сайте

    Дорогой пользователь! Огромная просьба, поблагодарите релизера, оцените раздачу и оставьте свои комментарий, если Вы скачали ИП Пирогова через торрент бесплатно! Внесите свою лепту в развитие PiratBit!
    Комментировать посты могут только пользователи прошедшие не сложную регистрацию
    Показать сообщения:    

    ИП Пирогова через торрент
    Скачать бесплатно ИП Пирогова
    ИП Пирогова скачать торрент
    ИП Пирогова смотреть онлайн
    Cкачать фильм ИП Пирогова бесплатно
    ИП Пирогова скачать торрент в хорошем качестве
    ИП Пирогова смотреть онлайн бесплатно в хорошем качестве


    Вы не можете начинать темы
    Вы не можете отвечать на сообщения
    Вы не можете редактировать свои сообщения
    Вы не можете удалять свои сообщения
    Вы не можете голосовать в опросах
    Вы не можете прикреплять файлы к сообщениям
    Вы можете скачивать файлы