Доктор Стрэндж

Лицензия

Добыча

Дубляж

Дом дракона

1 сезон

Тор

Дубляж

В эфире

Дубляж

Там, где раки поют

MVO

Властелин колец

1 сезон

GLOBAL

pack

Рекомендуем

30

Пиратка

ВАЖНО

ВАЖНО

Ghostwire

Пиратка

jed

RePack

nioh2

RePack

RDR2

RePack

NEED FOR SPEED™ PAYBACK

RePack

скачать торрент

Кинопоиск HD

Острые козырьки 6 сезон

6 сезон

FAR CRY 6

RePack

скачать торрент

Лицензия

скачать торрент

MVO

1

1 сезон

скачать торрент

1 сезон

скачать торрент

Лицензия

  

Препод: История Галатеи / Women (Антон Сигурдссон) [2021, Триллер, драма, криминал, WEB-DL 1080p] MVO [iTunes]

Препод: История Галатеи через торрент pb.wtf

Размер: 3.52 GB | Добавлен: 1 год 6 мес. назад | Торрент скачан:277 раз
Смотреть онлайн | Скачать   

02-05-2021 13:17 Препод: История Галатеи Скачать торрент  

Препод: История Галатеи | Women
Год выпуска: 2021
Страна: США, Исландия, Великобритания
Студия: Fulton Street Entertainment, Reason8 Films
Жанр: Триллер, драма, криминал
Продолжительность: 01:31:55
Перевод: Профессиональный (многоголосый) | iTunes
Субтитры: отсутствуют

Режиссер: Антон Сигурдссон

rating

В ролях: Анна Мари Доббинс, Анна Элизабет, Кайли Дельре, Адам Дорси, Денис Госсетт, Энтони Дель Негро, Синди Хоган, Хезер Фусари, Виктор Ривера, Дариус Девонтэй Грин

Описание: Брэдли живет двойной жизнью: днём он профессор престижного колледжа и примерный семьянин, а ночью — маньяк, похищающий молодых девушек. Он просчитывает каждый свой шаг, выбирая себе жертву, оставляя на кровати платье желтого цвета для каждой из них. Обладая цепким умом, Брэдли изощренно ломает сознание похищенных девушек, пробуждая в них стокгольмский синдром. Хэйли — умная студентка, с сильным, мятежным характером однажды обнаруживает у себя на кровати желтое платье.

Качество: WEB-DL 1080p
Формат: MKV

Видео: MPEG-4 AVC, 1916x956, 4708 Kbit/s, 24.000 fps
Аудио#1: 48 kHz, AC3, 5.1, 384 Kbps | iTunes | RUS |
Аудио#2: 48 kHz, AC3, 5.1, 384 Kbps | Оригинал | ENG |
скриншот  скриншот  скриншот  скриншот  скриншот  

General
Unique ID : 203868753640644498792183814885734155453 (0x995FB198B11A9B7DEC120D0E5D3D04BD)
Complete name : F:VideoWomen.2021.WEB-DL.1080p.seleZen.mkv
Format : Matroska
Format version : Version 4
File size : 3.52 GiB
Duration : 1 h 31 min
Overall bit rate : 5 478 kb/s
Movie name : Women 2021 from seleZen
Encoded date : UTC 2021-04-28 18:39:16
Writing application : mkvmerge v55.0.0 ('Waiting For Space') 64-bit
Writing library : libebml v1.4.2 + libmatroska v1.6.4

Video
ID : 1
Format : AVC
Format/Info : Advanced Video Codec
Format profile : [email protected]
Format settings : CABAC / 4 Ref Frames
Format settings, CABAC : Yes
Format settings, Reference : 4 frames
Codec ID : V_MPEG4/ISO/AVC
Duration : 1 h 31 min
Bit rate : 4 708 kb/s
Width : 1 916 pixels
Height : 956 pixels
Display aspect ratio : 2.004
Frame rate mode : Constant
Frame rate : 24.000 FPS
Color space : YUV
Chroma subsampling : 4:2:0
Bit depth : 8 bits
Scan type : Progressive
Bits/(Pixel*Frame) : 0.107
Stream size : 3.02 GiB (86%)
Language : English
Default : Yes
Forced : No
Color range : Limited
Color primaries : BT.709
Transfer characteristics : BT.709
Matrix coefficients : BT.709

Audio #1
ID : 2
Format : AC-3
Format/Info : Audio Coding 3
Commercial name : Dolby Digital
Codec ID : A_AC3
Duration : 1 h 31 min
Bit rate mode : Constant
Bit rate : 384 kb/s
Channel(s) : 6 channels
Channel layout : L R C LFE Ls Rs
Sampling rate : 48.0 kHz
Frame rate : 31.250 FPS (1536 SPF)
Compression mode : Lossy
Stream size : 252 MiB (7%)
Title : iTunes
Language : Russian
Service kind : Complete Main
Default : Yes
Forced : Yes

Audio #2
ID : 3
Format : AC-3
Format/Info : Audio Coding 3
Commercial name : Dolby Digital
Codec ID : A_AC3
Duration : 1 h 31 min
Bit rate mode : Constant
Bit rate : 384 kb/s
Channel(s) : 6 channels
Channel layout : L R C LFE Ls Rs
Sampling rate : 48.0 kHz
Frame rate : 31.250 FPS (1536 SPF)
Compression mode : Lossy
Stream size : 252 MiB (7%)
Title : Original
Language : English
Service kind : Complete Main
Default : No
Forced : No

Menu
00:00:00.000 : en:1
00:22:16.000 : en:2
00:45:04.000 : en:3
01:04:56.000 : en:4
01:29:16.000 : en:5




Скачать Препод: История Галатеи через торрент https://i114.fastpic.ru/big/2021/0428/99/28c89cf9af6e39cc891a8cbd091e4599.jpg Скачать, смотреть онлайн Препод: История Галатеи бесплантно в хорошем качестве Описание: Брэдли живет двойной жизнью: днём он профессор престижного колледжа и примерный семьянин, а ночью — маньяк, похищающий молодых ... 10 10 6
Торрент: Зарегистрирован [2021-05-02 13:17] · скачан: 277 раз
Статус: √ проверено
Размер: 3.52 GB
Как cкачать? Как скачать Препод: История Галатеи через торрент | UTorrent

% Раздел Тема Автор DL S | L
Фильмы [HD 720p, 1080p] (Хороший звук DUB, MVO) [ 9.51 GB ] Препод: История Галатеи / Women | iTunes | 1080p bober100 Скачать
5 | 0
Фильмы 2021 [DVDrip, WEB-DLRip, HDrip] (DUB, MVO) [ 746 MB ] Препод: История Галатеи / Women | iTunes | BDRip bober100 Скачать
1 | 0
Фильмы 2021 [DVDrip, WEB-DLRip, HDrip] (DUB, MVO) [ 1.42 GB ] Препод: История Галатеи / Women | iTunes | BDRip bober100 Скачать
1 | 0
Фильмы 2021 [DVDrip, WEB-DLRip, HDrip] (DUB, MVO) [ 1.46 GB ] Препод: История Галатеи / Women | Лицензия | DLRip Twi7ter Скачать
1 | 0

28-11-2019 20:33  


Отключить вcю реклaмy на сайте, в т.ч. и в плеере онлайн просмотра!

05-09-2022 18:03 Препод: История Галатеи Скачать торрент  

Хороший фильм, рейтинги реально обвалены. Не шедевр, но получше всякого бреда что снимают последнее время в этом стиле. Любителям легких триллеров - рекомендую.



    Дорогой пользователь! Огромная просьба, поблагодарите релизера, оцените раздачу и оставьте свои комментарий, если Вы скачали Препод: История Галатеи через торрент бесплатно!!
    Комментировать посты могут только пользователи прошедшие не сложную регистрацию
    Показать сообщения:    


    Препод: История Галатеи через торрент
    Скачать бесплатно Препод: История Галатеи
    Препод: История Галатеи скачать торрент
    Препод: История Галатеи смотреть онлайн
    Cкачать фильм Препод: История Галатеи бесплатно
    Препод: История Галатеи скачать торрент в хорошем качестве
    Препод: История Галатеи смотреть онлайн бесплатно в хорошем качестве
    Вы не можете начинать темы
    Вы не можете отвечать на сообщения
    Вы не можете редактировать свои сообщения
    Вы не можете удалять свои сообщения
    Вы не можете голосовать в опросах
    Вы не можете прикреплять файлы к сообщениям
    Вы можете скачивать файлы
    Препод: История Галатеи / Women [2021, Триллер, драма, криминал, WEB-DL 1080p] MVO [iTunes] смотреть онлайн, скачать торрент picoco.icu