1 сезон

1 сезон

iTunes

1

iTunes

Кинопоиск HD

iTunes

13

1 сезон

RePack

30

Deluxe

ВАЖНО

ИГРА 18+

pack

RePack

MK11
pack

Легкие деньги

RePack

jed

RePack

fifa19

RePack

RDR2

RePack

NEED FOR SPEED™ PAYBACK

4 сезон

9 сезон

Бесстыжие 9 сезон

Все сериалы

все сериалы на PB.wtf

RePack

FAR CRY 5
  
Magnet ссылка

Закоулок убийц / Murderers' Row (Генри Левин) [1966, Фантастика, боевик, триллер, драма, комедия, приключения, BDRip 720p, Профессиональный (многоголосый)] от ExKinoRay pb.wtf

Закоулок убийц через торрент pb.wtf

Раздают: 1 [ 0 KB/s ]
Размер: 6.52 GB | Добавлен: 10 д. назад | Торрент скачан:8 раз
Скачать  

02-05-2021 14:24 Закоулок убийц Скачать торрент  

Закоулок убийц / Murderers' Row
Год выпуска: 1966
Страна: США
Жанр: Фантастика, боевик, триллер, драма, комедия, приключения
Продолжительность: 01:45:06
Перевод: Профессиональный (многоголосый)
Субтитры: Английские

Режиссер: Генри Левин

Премьера в мире: 20 декабря 1966

rating

В ролях: Дин Мартин, Энн-Маргрет, Карл Молден, Камилла Спарв, Джеймс Грегори, Беверли Адамс, Ричард Истхэм, Том Риз, Дьюк Ховард, Тед Хартли

Описание: Мэтт Хелм инсценирует собственное убийство. И пока девушки скорбят по нему, красавчик отправляется на поиски пропавшего ученого - доктора Соляриса, который изобрёл супероружие - испепеляющий луч. Следы ведут на Лазурный берег... Ну а там, как всегда много красивых девушек и масса приключений.

Качество: BDRip 720p
Формат: MKV
Видео кодек: MPEG4
Аудио кодек: AC3
Видео: 8500 Кбит/с, 1280x720, 23.976 кадра/сек
Аудио#1: Русский (AC3, 2 ch, 192 Кбит/с, 48 КГц)
Аудио#2: Английский (AC3, 2 ch, 192 Кбит/с, 48 КГц)

x264 [info]: profile Main, level 4.1
x264 [info]: frame I:996 Avg QP:19.07 size:156804
x264 [info]: frame P:32194 Avg QP:20.18 size: 74821
x264 [info]: frame B:118011 Avg QP:21.97 size: 35042
x264 [info]: consecutive B-frames: 1.4% 2.3% 9.1% 17.2% 18.2% 44.7% 5.0% 1.0% 0.5% 0.3% 0.2%
-----
Общее
Уникальный идентификатор : 194878825938935241982368105472315520802 (0x929C4BF09E174FE49B8107CA12767722)
Полное имя : D:\EKR\Murderers.1966.BDRip720p.ExKinoRay.mkv
Формат : Matroska
Версия формата : Version 2
Размер файла : 6,52 Гбайт
Продолжительность : 1 ч. 45 м.
Общий поток : 8887 Кбит/сек
Дата кодирования : UTC 2021-05-02 11:46:54
Программа кодирования : mkvmerge v7.8.0 ('River Man') 32bit built on Apr 3 2015 12:11:22
Библиотека кодирования : libebml v1.3.1 + libmatroska v1.4.2

Видео
Идентификатор : 1
Формат : AVC
Формат/Информация : Advanced Video Codec
Профиль формата : High@L4.1
Настройки формата : CABAC / 9 Ref Frames
Параметр CABAC формата : Да
Параметр RefFrames формата : 9 кадров
Идентификатор кодека : V_MPEG4/ISO/AVC
Продолжительность : 1 ч. 45 м.
Битрейт : 8500 Кбит/сек
Ширина : 1280 пикселей
Высота : 720 пикселей
Соотношение сторон : 16:9
Режим частоты кадров : Постоянный
Частота кадров : 23,976 (24000/1001) кадра/сек
Цветовое пространство : YUV
Субдискретизация насыщенности : 4:2:0
Битовая глубина : 8 бит
Тип развёртки : Прогрессивная
Бит/(Пиксели*Кадры) : 0.385
Размер потока : 6,11 Гбайт (94%)
Библиотека кодирования : x264 core 152 r2851 ba24899
Настройки программы : cabac=1 / ref=9 / deblock=1:-3:-2 / analyse=0x3:0x113 / me=umh / subme=10 / psy=1 / psy_rd=1.00:0.10 / mixed_ref=1 / me_range=32 / chroma_me=1 / trellis=2 / 8x8dct=1 / cqm=0 / deadzone=21,11 / fast_pskip=0 / chroma_qp_offset=-3 / threads=6 / lookahead_threads=1 / sliced_threads=0 / nr=0 / decimate=0 / interlaced=0 / bluray_compat=0 / constrained_intra=0 / bframes=10 / b_pyramid=2 / b_adapt=2 / b_bias=0 / direct=3 / weightb=1 / open_gop=0 / weightp=2 / keyint=240 / keyint_min=23 / scenecut=40 / intra_refresh=0 / rc=2pass / mbtree=0 / bitrate=8500 / ratetol=1.0 / qcomp=0.60 / qpmin=0 / qpmax=69 / qpstep=4 / cplxblur=20.0 / qblur=0.5 / ip_ratio=1.40 / pb_ratio=1.30 / aq=3:1.00
Язык : English
Default : Да
Forced : Нет
Цветовой диапазон : Limited
Основные цвета : BT.709
Характеристики трансфера : BT.709
Коэффициенты матрицы : BT.709

Аудио #1
Идентификатор : 2
Формат : AC-3
Формат/Информация : Audio Coding 3
Коммерческое название : Dolby Digital
Идентификатор кодека : A_AC3
Продолжительность : 1 ч. 45 м.
Вид битрейта : Постоянный
Битрейт : 192 Кбит/сек
Каналы : 2 канала
Channel layout : L R
Частота : 48,0 КГц
Частота кадров : 31,250 кадров/сек (1536 SPF)
Битовая глубина : 16 бит
Метод сжатия : С потерями
Размер потока : 144 Мбайт (2%)
Язык : Russian
ServiceKind/String : Complete Main
Default : Да
Forced : Нет

Аудио #2
Идентификатор : 3
Формат : AC-3
Формат/Информация : Audio Coding 3
Коммерческое название : Dolby Digital
Идентификатор кодека : A_AC3
Продолжительность : 1 ч. 45 м.
Вид битрейта : Постоянный
Битрейт : 192 Кбит/сек
Каналы : 2 канала
Channel layout : L R
Частота : 48,0 КГц
Частота кадров : 31,250 кадров/сек (1536 SPF)
Битовая глубина : 16 бит
Метод сжатия : С потерями
Размер потока : 144 Мбайт (2%)
Язык : English
ServiceKind/String : Complete Main
Default : Нет
Forced : Нет

Текст
Идентификатор : 4
Формат : UTF-8
Идентификатор кодека : S_TEXT/UTF8
Идентификатор кодека/Информация : UTF-8 Plain Text
Язык : English
Default : Нет
Forced : Нет

Меню
00:00:00.000 : en:Chapter 1
00:14:24.781 : en:Chapter 2
00:31:52.744 : en:Chapter 3
00:49:21.000 : en:Chapter 4
01:01:16.715 : en:Chapter 5
01:09:56.818 : en:Chapter 6
01:23:22.706 : en:Chapter 7
01:32:18.241 : en:Chapter 8

pb.wtf



Скачать Закоулок убийц через торрент http://a.radikal.ru/a12/2105/88/155d859dc59c.jpg Скачать фильм Закоулок убийц через торрент бесплантно в хорошем качестве Описание: Мэтт Хелм инсценирует собственное убийство. И пока девушки скорбят по нему, красавчик отправляется на поиски пропавшего ученого - ... 5 10 1
Торрент: Зарегистрирован [2021-05-02 14:24] · скачан: 8 раз
Статус: √ проверено
Размер: 6.52 GB
Как cкачать? Как скачать Закоулок убийц через торрент | UTorrent

28-11-2019 20:33  

Отключить всю рекламу на сайте

    Дорогой пользователь! Огромная просьба, поблагодарите релизера, оцените раздачу и оставьте свои комментарий, если Вы скачали Закоулок убийц через торрент бесплатно! Внесите свою лепту в развитие PiratBit!
    Комментировать посты могут только пользователи прошедшие не сложную регистрацию
    Показать сообщения:    

    Закоулок убийц через торрент
    Скачать бесплатно Закоулок убийц
    Закоулок убийц скачать торрент
    Закоулок убийц смотреть онлайн
    Cкачать фильм Закоулок убийц бесплатно
    Закоулок убийц скачать торрент в хорошем качестве
    Закоулок убийц смотреть онлайн бесплатно в хорошем качестве


    Вы не можете начинать темы
    Вы не можете отвечать на сообщения
    Вы не можете редактировать свои сообщения
    Вы не можете удалять свои сообщения
    Вы не можете голосовать в опросах
    Вы не можете прикреплять файлы к сообщениям
    Вы можете скачивать файлы