1 сезон

1 сезон

iTunes

1

iTunes

Кинопоиск HD

iTunes

13

1 сезон

RePack

30

Deluxe

ВАЖНО

ИГРА 18+

pack

RePack

MK11
pack

Легкие деньги

RePack

jed

RePack

fifa19

RePack

RDR2

RePack

NEED FOR SPEED™ PAYBACK

4 сезон

9 сезон

Бесстыжие 9 сезон

Все сериалы

все сериалы на PB.wtf

RePack

FAR CRY 5
  
Magnet ссылка

Берег москитов / The Mosquito Coast / Сезон: 1 / Серии: 1-3 из 7 (Наталия Беристайн, Руперт Уайатт, Клер Килнер) [2021, Триллер, драма, приключения, WEB-DL 1080p] MVO [AlexFilm] pb.wtf

Берег москитов через торрент pb.wtf

Раздают: 4 [ 608 KB/s ] Качают: 4 [ 0 KB/s ]
Размер: 13.11 GB | Добавлен: 5 д. назад | Торрент скачан:16 раз
Скачать  

02-05-2021 16:26 Берег москитов Скачать торрент  

Берег москитов | The Mosquito Coast
Год выпуска: 2021
Страна: США
Выпущено: Fremantle Media North America, Redrum, Veritas Entertainment Group
Жанр: Триллер, драма, приключения
Продолжительность: ~ 01:00:00
Перевод: Профессиональный (многоголосый) | AlexFilm
Субтитры: Русские (Forced, Full |«Apple TV+»|, английские (Full, SDH)

Режиссер: Наталия Беристайн, Руперт Уайатт, Клер Килнер

rating

В ролях: Джастин Теру, Мелисса Джордж, Логан Полиш, Гэбриел Бейтман, Кимберли Элиз, Скотти Товар, Грег Брайан, Алехандро Карденас, Офелия Медина

Описание: Экранизация романа Пола Теру. Сериал рассказывает об изобретателе, который продаёт свой дом и переезжает вместе с семьей в Центральную Америку, на Берег Москитов, где сталкивается с рядом проблем.

Качество: WEB-DL 1080p
Формат: MKV

Видео: 1920x960 (2.000), 23.976 fps, ~ 10 Mbps
Аудио №1: AC3, 48,0 kHz, 6 ch, 384 kbps | AlexFilm
Аудио №2: AC3, 48,0 kHz, 6 ch, 640 kbps | Original
Аудио №3: EAC3+Atmos, 48,0 kHz, 6 ch, 768 kbps | Original
скриншот  скриншот  скриншот  скриншот  

Complete name : D:The_Mosquito_Coast_(s01)_AlexFilm_1080pThe.Mosquito.Coast.2021.S01E01.Light.Out.1080p.ATVP.WEB-DL.DDP5.1.x264-NTb_EniaHD.mkv
Format : Matroska
Format version : Version 4
File size : 4.70 GiB
Duration : 57 min 36 s
Overall bit rate : 11.7 Mb/s
Encoded date : UTC 2021-05-02 16:14:23
Writing application : mkvmerge v53.0.0 ('Fool's Gold') 64-bit
Writing library : libebml v1.4.1 + libmatroska v1.6.2

Video
ID : 1
Format : AVC
Format/Info : Advanced Video Codec
Format profile : High@L4
Format settings : CABAC / 4 Ref Frames
Format settings, CABAC : Yes
Format settings, Reference : 4 frames
Codec ID : V_MPEG4/ISO/AVC
Duration : 57 min 36 s
Bit rate : 9 881 kb/s
Width : 1 920 pixels
Height : 960 pixels
Display aspect ratio : 2.000
Frame rate mode : Constant
Frame rate : 23.976 (24000/1001) FPS
Color space : YUV
Chroma subsampling : 4:2:0
Bit depth : 8 bits
Scan type : Progressive
Bits/(Pixel*Frame) : 0.224
Stream size : 3.98 GiB (85%)
Default : Yes
Forced : No
Color range : Limited
Color primaries : BT.709
Transfer characteristics : BT.709
Matrix coefficients : BT.709

Audio #1
ID : 2
Format : AC-3
Format/Info : Audio Coding 3
Commercial name : Dolby Digital
Codec ID : A_AC3
Duration : 57 min 36 s
Bit rate mode : Constant
Bit rate : 384 kb/s
Channel(s) : 6 channels
Channel layout : L R C LFE Ls Rs
Sampling rate : 48.0 kHz
Frame rate : 31.250 FPS (1536 SPF)
Compression mode : Lossy
Stream size : 158 MiB (3%)
Title : AlexFilm
Language : Russian
Service kind : Complete Main
Default : Yes
Forced : No

Audio #2
ID : 3
Format : AC-3
Format/Info : Audio Coding 3
Commercial name : Dolby Digital
Codec ID : A_AC3
Duration : 57 min 36 s
Bit rate mode : Constant
Bit rate : 640 kb/s
Channel(s) : 6 channels
Channel layout : L R C LFE Ls Rs
Sampling rate : 48.0 kHz
Frame rate : 31.250 FPS (1536 SPF)
Compression mode : Lossy
Stream size : 264 MiB (5%)
Language : English
Service kind : Complete Main
Default : No
Forced : No

Audio #3
ID : 4
Format : E-AC-3 JOC
Format/Info : Enhanced AC-3 with Joint Object Coding
Commercial name : Dolby Digital Plus with Dolby Atmos
Codec ID : A_EAC3
Duration : 57 min 36 s
Bit rate mode : Constant
Bit rate : 768 kb/s
Channel(s) : 6 channels
Channel layout : L R C LFE Ls Rs
Sampling rate : 48.0 kHz
Frame rate : 31.250 FPS (1536 SPF)
Compression mode : Lossy
Stream size : 316 MiB (7%)
Language : English
Service kind : Complete Main
Default : No
Forced : No
Complexity index : 16
Number of dynamic objects : 15
Bed channel count : 1 channel
Bed channel configuration : LFE

Text #1
ID : 5
Format : UTF-8
Codec ID : S_TEXT/UTF8
Codec ID/Info : UTF-8 Plain Text
Duration : 45 min 27 s
Bit rate : 0 b/s
Count of elements : 7
Stream size : 265 Bytes (0%)
Title : Forced
Language : Russian
Default : Yes
Forced : No

Text #2
ID : 6
Format : UTF-8
Codec ID : S_TEXT/UTF8
Codec ID/Info : UTF-8 Plain Text
Duration : 55 min 47 s
Bit rate : 56 b/s
Count of elements : 502
Stream size : 23.0 KiB (0%)
Title : Full |Apple TV+|
Language : Russian
Default : No
Forced : No

Text #3
ID : 7
Format : UTF-8
Codec ID : S_TEXT/UTF8
Codec ID/Info : UTF-8 Plain Text
Duration : 55 min 44 s
Bit rate : 36 b/s
Count of elements : 502
Stream size : 14.9 KiB (0%)
Title : Full
Language : English
Default : No
Forced : No

Text #4
ID : 8
Format : UTF-8
Codec ID : S_TEXT/UTF8
Codec ID/Info : UTF-8 Plain Text
Duration : 55 min 52 s
Bit rate : 44 b/s
Count of elements : 648
Stream size : 18.1 KiB (0%)
Title : SDH
Language : English
Default : No
Forced : No

Внимание! Раздача ведётся путём добавления новых серий; при каждом добавлении создаётся новый торрент.
Чтобы начать докачку новой серии, пользователям необходимо сделать следующее:
1. Остановить скачивание;
2. Удалить старый торрент у себя из клиента (старые серии удалять не надо);
3. Скачать новый торрент и запустить его у себя в клиенте вместо старого, при этом указать клиенту путь в старую папку куда и должно происходить скачивание новых серий. Ваш клиент при этом должен произвести хеширование (проверку) старой папки и будет докачивать только те серии, которых у вас ещё нет. Старые серии при этом не удаляются, а продолжают раздаваться! Eсли вы уже удалили старые серии, то предотвратить повторную закачку старых серий можно, отжав галочку в соответствующих местах при запуске нового торрента.

pb.wtf



Скачать Берег москитов через торрент https://c.radikal.ru/c25/2105/ae/fcd8b3204b33.png Скачать фильм Берег москитов через торрент бесплантно в хорошем качестве Описание: Экранизация романа Пола Теру. Сериал рассказывает об изобретателе, который продаёт свой дом и переезжает вместе с семьей в ... 10 10 4
Торрент: Зарегистрирован [2021-05-08 05:35] · скачан: 16 раз
Статус: √ проверено
Размер: 13.11 GB
Как cкачать? Как скачать Берег москитов через торрент | UTorrent

% Раздел Тема Автор DL S | L
Зарубежные сериалы [ 4.94 GB ] Берег москитов / The Mosquito Coast / Сезон: 1 / Серии: 1-3 из 7 [2021 WEB-DL 720p] MVO [HDRezka Studio] bober100 Скачать
6 | 4

28-11-2019 20:33  

Отключить всю рекламу на сайте


    Дорогой пользователь! Огромная просьба, поблагодарите релизера, оцените раздачу и оставьте свои комментарий, если Вы скачали Берег москитов через торрент бесплатно! Внесите свою лепту в развитие PiratBit!
    Комментировать посты могут только пользователи прошедшие не сложную регистрацию
    Показать сообщения:    

    Берег москитов через торрент
    Скачать бесплатно Берег москитов
    Берег москитов скачать торрент
    Берег москитов смотреть онлайн
    Cкачать фильм Берег москитов бесплатно
    Берег москитов скачать торрент в хорошем качестве
    Берег москитов смотреть онлайн бесплатно в хорошем качестве


    Вы не можете начинать темы
    Вы не можете отвечать на сообщения
    Вы не можете редактировать свои сообщения
    Вы не можете удалять свои сообщения
    Вы не можете голосовать в опросах
    Вы не можете прикреплять файлы к сообщениям
    Вы можете скачивать файлы