1 сезон

1 сезон

iTunes

1

iTunes

Кинопоиск HD

iTunes

13

1 сезон

RePack

30

Deluxe

ВАЖНО

ИГРА 18+

pack

RePack

MK11
pack

Легкие деньги

RePack

jed

RePack

fifa19

RePack

RDR2

RePack

NEED FOR SPEED™ PAYBACK

4 сезон

9 сезон

Бесстыжие 9 сезон

Все сериалы

все сериалы на PB.wtf

RePack

FAR CRY 5
  
Magnet ссылка

Харлан Кобен. Невиновен / El inocente / The Innocent / Сезон: 1 / Серии: 1-8 из 8 (Ориол Паоло) [2021, Триллер, драма, криминал, детектив, WEB-DLRip] MVO [HDRezka Studio] pb.wtf

Харлан Кобен. Невиновен через торрент pb.wtf

Раздают: 8 [ 823 KB/s ] Качают: 1 [ 0 KB/s ]
Размер: 8.65 GB | Добавлен: 5 д. назад | Торрент скачан:30 раз
Скачать  

02-05-2021 18:24 Харлан Кобен. Невиновен Скачать торрент  

Харлан Кобен. Невиновен | El inocente | The Innocent
Год выпуска: 2021
Страна: Испания
Студия: Sospecha Films
Жанр: Триллер, драма, криминал, детектив
Продолжительность: ~ 00:50:00 серия
Перевод: Профессиональный (многоголосый) | HDRezka Studio
Субтитры: Русские, английские

Режиссер: Ориол Паоло

rating

В ролях: Марио Касас, Хави Саес, Сантьяго Понс, Александра Хименес, Хосе Коронадо, Мартина Гусман, Хуана Акоста, Суси Санчес, Аура Гарридо, Мики Эспарбе

Описание: Случайная смерть вовлекает его в жуткий водоворот интриг и убийств. Не успевает он обрести свободу и любовь, как один телефонный звонок возвращает кошмар в его жизнь.

Качество: WEB-DLRip
Формат: AVI

Видео: 704x352, XviD ~2 000 kbps avg, 0.26 bit/pixel
Аудио Rus: 48 kHz, AC3, 3/2 (L,C,R,l,r) + LFE ch, ~384 kbps avg |HDRezka Studio|
Аудио Eng: 48 kHz, AC3, 3/2 (L,C,R,l,r) + LFE ch, ~384 kbps avg |Original|
скриншот  скриншот  скриншот  скриншот  

Общее
Полное имя : C:The Innocent\The.Innocent.s01e01.avi
Формат : AVI
Формат/Информация : Audio Video Interleave
Размер файла : 1022 Мбайт
Продолжительность : 51 м. 2 с.
Общий поток : 2798 Кбит/сек
Программа кодирования : VirtualDubMod 1.5.10.2 (build 2540/release)
Библиотека кодирования : VirtualDubMod build 2540/release

Видео
Идентификатор : 0
Формат : MPEG-4 Visual
Профиль формата : Advanced Simple@L5
Параметр BVOP формата : 1
Параметр QPel формата : Нет
Параметр GMC формата : Без точки перехода
Параметр матрицы формата : Выборочная
Идентификатор кодека : XVID
Идентификатор кодека/Подсказка : XviD
Продолжительность : 51 м. 2 с.
Битрейт : 1909 Кбит/сек
Ширина : 704 пикселя
Высота : 352 пикселя
Соотношение сторон : 2,000
Частота кадров : 25,000 кадров/сек
Цветовое пространство : YUV
Субдискретизация насыщенности : 4:2:0
Битовая глубина : 8 бит
Тип развёртки : Прогрессивная
Метод сжатия : С потерями
Бит/(Пиксели*Кадры) : 0.308
Размер потока : 697 Мбайт (68%)
Библиотека кодирования : XviD 73

Аудио #1
Идентификатор : 1
Формат : AC-3
Формат/Информация : Audio Coding 3
Расширение режима : CM (complete main)
Параметр Endianness формата : Big
Идентификатор кодека : 2000
Продолжительность : 51 м. 2 с.
Вид битрейта : Постоянный
Битрейт : 384 Кбит/сек
Каналы : 6 каналов
Расположение каналов : Front: L C R, Side: L R, LFE
Частота : 48,0 КГц
Частота кадров : 31,250 кадров/сек (1536 spf)
Метод сжатия : С потерями
Размер потока : 140 Мбайт (14%)
Выравнивание : Разделение по промежуткам

Аудио #2
Идентификатор : 2
Формат : AC-3
Формат/Информация : Audio Coding 3
Расширение режима : CM (complete main)
Параметр Endianness формата : Big
Идентификатор кодека : 2000
Продолжительность : 51 м. 2 с.
Вид битрейта : Постоянный
Битрейт : 384 Кбит/сек
Каналы : 6 каналов
Расположение каналов : Front: L C R, Side: L R, LFE
Частота : 48,0 КГц
Частота кадров : 31,250 кадров/сек (1536 spf)
Метод сжатия : С потерями
Размер потока : 140 Мбайт (14%)
Выравнивание : Разделение по промежуткам

Внимание! Раздача ведётся путём добавления новых серий; при каждом добавлении создаётся новый торрент.
Чтобы начать докачку новой серии, пользователям необходимо сделать следующее:
1. Остановить скачивание;
2. Удалить старый торрент у себя из клиента (старые серии удалять не надо);
3. Скачать новый торрент и запустить его у себя в клиенте вместо старого, при этом указать клиенту путь в старую папку куда и должно происходить скачивание новых серий. Ваш клиент при этом должен произвести хеширование (проверку) старой папки и будет докачивать только те серии, которых у вас ещё нет. Старые серии при этом не удаляются, а продолжают раздаваться! Eсли вы уже удалили старые серии, то предотвратить повторную закачку старых серий можно, отжав галочку в соответствующих местах при запуске нового торрента.

pb.wtf



Скачать Харлан Кобен. Невиновен через торрент https://i114.fastpic.ru/big/2021/0502/76/844448856b964bf225cc4f15cef42776.jpeg Скачать фильм Харлан Кобен. Невиновен через торрент бесплантно в хорошем качестве Описание: Случайная смерть вовлекает его в жуткий водоворот интриг и убийств. Не успевает он обрести свободу и любовь, как один телефонный ... 10 10 3
Торрент: Зарегистрирован [2021-05-08 11:24] · скачан: 30 раз
Статус: √ проверено
Размер: 8.65 GB
Как cкачать? Как скачать Харлан Кобен. Невиновен через торрент | UTorrent

% Раздел Тема Автор DL S | L
Зарубежные сериалы [ 14.19 GB ] Харлан Кобен. Невиновен / El inocente / The Innocent / Сезон: 1 / Серии: 1-8 из 8 [2021 WEB-DL 1080p] MVO [HDRezka Studio] bober100 Скачать
14 | 3

28-11-2019 20:33  

Отключить всю рекламу на сайте


    Дорогой пользователь! Огромная просьба, поблагодарите релизера, оцените раздачу и оставьте свои комментарий, если Вы скачали Харлан Кобен. Невиновен через торрент бесплатно! Внесите свою лепту в развитие PiratBit!
    Комментировать посты могут только пользователи прошедшие не сложную регистрацию
    Показать сообщения:    

    Харлан Кобен. Невиновен через торрент
    Скачать бесплатно Харлан Кобен. Невиновен
    Харлан Кобен. Невиновен скачать торрент
    Харлан Кобен. Невиновен смотреть онлайн
    Cкачать фильм Харлан Кобен. Невиновен бесплатно
    Харлан Кобен. Невиновен скачать торрент в хорошем качестве
    Харлан Кобен. Невиновен смотреть онлайн бесплатно в хорошем качестве


    Вы не можете начинать темы
    Вы не можете отвечать на сообщения
    Вы не можете редактировать свои сообщения
    Вы не можете удалять свои сообщения
    Вы не можете голосовать в опросах
    Вы не можете прикреплять файлы к сообщениям
    Вы можете скачивать файлы