1 сезон

1 сезон

iTunes

1

iTunes

Кинопоиск HD

iTunes

13

1 сезон

RePack

30

Deluxe

ВАЖНО

ИГРА 18+

pack

RePack

MK11
pack

Легкие деньги

RePack

jed

RePack

fifa19

RePack

RDR2

RePack

NEED FOR SPEED™ PAYBACK

4 сезон

9 сезон

Бесстыжие 9 сезон

Все сериалы

все сериалы на PB.wtf

RePack

FAR CRY 5
  
Magnet ссылка

Рассказ служанки / The Handmaid's Tale / Сезон: 4 / Серии: 1-4 из 10 (Майк Баркер, Кари Скогланд, Даина Рейд) [2021, фантастика, триллер, драма, WEB-DL 1080p] MVO [NewStudio] pb.wtf

Рассказ служанки через торрент pb.wtf

Качают: 3 [ 0 KB/s ]
Размер: 11.15 GB | Добавлен: 5 д. назад | Торрент скачан:6 раз
Скачать  

03-05-2021 02:59 Рассказ служанки Скачать торрент  

Рассказ служанки | The Handmaid's Tale
«We will bear no more»
Производство: США
Год выпуска: 2021
Жанр: фантастика, триллер, драма
Продолжительность: ~ 00:50:00 серия
Премьера (мир): 24 апреля 2017
Премьера (РФ): 27 апреля 2017
Перевод: Профессиональный (многоголосый закадровый) | NewStudio
Субтитры: Английские (Full, SDH)

Режиссёр: Майк Баркер, Кари Скогланд, Даина Рейд

В ролях: Элизабет Мосс (Elisabeth Moss), Ивонн Страховски (Yvonne Strahovski), Джозеф Файнс (Joseph Fiennes), Энн Дауд (Ann Dowd), Мадлен Брюэр (Madeline Brewer), Аманда Бругел (Amanda Brugel), Макс Мингелла (Max Minghella), О. Т. Фагбенли (O-T Fagbenle), Самира Уайли (Samira Wiley), Нина Кири (Nina Kiri), Алексис Бледел (Alexis Bledel)

Описание: Действие разворачивается в будущем, в республике Гилеад, где у власти стоят военные. В стране жестокие порядки и нравы, уважением в обществе пользуются только офицеры и их жёны. Помимо тоталитарного устройства общества, в мире будущего есть серьёзная проблема — бесплодие. Лишь каждая сотая женщина способна к воспроизведению потомства. Чтобы продолжить офицерский род, семьи берут в дом служанку — суррогатную мать из числа простых женщин, способных к деторождению. Исполнив долг, служанка должна расстаться со своим ребёнком и перейти на службу к новым хозяевам.

скриншот  

Качество: WEB-DL 1080p
Формат: MKV

Видео: 1920x960 (16:9), 23.976 fps, ~ 6800 Kbps
Аудио Rus: AC3, 48,0 kHz, 6 ch, 384 kbps | NewStudio
Аудио Eng: AC3, 48,0 kHz, 6 ch, 640 kbps | Original
скриншот  скриншот  скриншот  скриншот  

Complete name : D:The_Handmaid\'s_Tale_(s04)_NewStudio_1080p.The.Handmaids.Tale.2021.S04E01.Pigs.1080p.AMZN.WEB-DL.DD5.1.x264-NTb_EniaHD.mkv
Format : Matroska
Format version : Version 4
File size : 3.07 GiB
Duration : 55 min 55 s
Overall bit rate : 7 851 kb/s
Encoded date : UTC 2021-05-02 20:08:28
Writing application : mkvmerge v53.0.0 ('Fool's Gold') 64-bit
Writing library : libebml v1.4.1 + libmatroska v1.6.2

Video
ID : 1
Format : AVC
Format/Info : Advanced Video Codec
Format profile : High@L4
Format settings : CABAC / 4 Ref Frames
Format settings, CABAC : Yes
Format settings, Reference : 4 frames
Codec ID : V_MPEG4/ISO/AVC
Duration : 55 min 55 s
Bit rate mode : Constant
Bit rate : 6 825 kb/s
Nominal bit rate : 10 000 kb/s
Width : 1 920 pixels
Height : 960 pixels
Display aspect ratio : 2.000
Frame rate mode : Constant
Frame rate : 23.976 (24000/1001) FPS
Color space : YUV
Chroma subsampling : 4:2:0
Bit depth : 8 bits
Scan type : Progressive
Bits/(Pixel*Frame) : 0.154
Stream size : 2.67 GiB (87%)
Title : Release by EniaHD
Default : Yes
Forced : No
Color range : Limited
Color primaries : BT.709
Transfer characteristics : BT.709
Matrix coefficients : BT.709

Audio #1
ID : 2
Format : AC-3
Format/Info : Audio Coding 3
Commercial name : Dolby Digital
Codec ID : A_AC3
Duration : 55 min 55 s
Bit rate mode : Constant
Bit rate : 384 kb/s
Channel(s) : 6 channels
Channel layout : L R C LFE Ls Rs
Sampling rate : 48.0 kHz
Frame rate : 31.250 FPS (1536 SPF)
Compression mode : Lossy
Stream size : 154 MiB (5%)
Title : NewStudio
Language : Russian
Service kind : Complete Main
Default : Yes
Forced : No

Audio #2
ID : 3
Format : AC-3
Format/Info : Audio Coding 3
Commercial name : Dolby Digital
Codec ID : A_AC3
Duration : 55 min 55 s
Bit rate mode : Constant
Bit rate : 640 kb/s
Channel(s) : 6 channels
Channel layout : L R C LFE Ls Rs
Sampling rate : 48.0 kHz
Frame rate : 31.250 FPS (1536 SPF)
Compression mode : Lossy
Stream size : 256 MiB (8%)
Language : English
Service kind : Complete Main
Default : No
Forced : No

Text #1
ID : 4
Format : UTF-8
Codec ID : S_TEXT/UTF8
Codec ID/Info : UTF-8 Plain Text
Duration : 55 min 38 s
Bit rate : 42 b/s
Count of elements : 646
Stream size : 17.2 KiB (0%)
Title : Full
Language : English
Default : No
Forced : No

Text #2
ID : 5
Format : UTF-8
Codec ID : S_TEXT/UTF8
Codec ID/Info : UTF-8 Plain Text
Duration : 55 min 38 s
Bit rate : 51 b/s
Count of elements : 794
Stream size : 21.0 KiB (0%)
Title : SDH
Language : English
Default : No
Forced : No

Внимание! Раздача ведётся путём добавления новых серий; при каждом добавлении создаётся новый торрент.
Чтобы начать докачку новой серии, пользователям необходимо сделать следующее:
1. Остановить скачивание;
2. Удалить старый торрент у себя из клиента (старые серии удалять не надо);
3. Скачать новый торрент и запустить его у себя в клиенте вместо старого, при этом указать клиенту путь в старую папку куда и должно происходить скачивание новых серий. Ваш клиент при этом должен произвести хеширование (проверку) старой папки и будет докачивать только те серии, которых у вас ещё нет. Старые серии при этом не удаляются, а продолжают раздаваться! Eсли вы уже удалили старые серии, то предотвратить повторную закачку старых серий можно, отжав галочку в соответствующих местах при запуске нового торрента.

pb.wtf



Скачать Рассказ служанки через торрент http://i114.fastpic.ru/big/2021/0406/08/beb7f9f0192b8e0308966356ed1bcf08.png Скачать фильм Рассказ служанки через торрент бесплантно в хорошем качестве Описание: Действие разворачивается в будущем, в республике Гилеад, где у власти стоят военные. В стране жестокие порядки и нравы, уважением ... 10 10 2
Торрент: Зарегистрирован [2021-05-08 16:47] · скачан: 6 раз
Статус: √ проверено
Размер: 11.15 GB
Как cкачать? Как скачать Рассказ служанки через торрент | UTorrent

28-11-2019 20:33  

Отключить всю рекламу на сайте

    Дорогой пользователь! Огромная просьба, поблагодарите релизера, оцените раздачу и оставьте свои комментарий, если Вы скачали Рассказ служанки через торрент бесплатно! Внесите свою лепту в развитие PiratBit!
    Комментировать посты могут только пользователи прошедшие не сложную регистрацию
    Показать сообщения:    

    Рассказ служанки через торрент
    Скачать бесплатно Рассказ служанки
    Рассказ служанки скачать торрент
    Рассказ служанки смотреть онлайн
    Cкачать фильм Рассказ служанки бесплатно
    Рассказ служанки скачать торрент в хорошем качестве
    Рассказ служанки смотреть онлайн бесплатно в хорошем качестве


    Вы не можете начинать темы
    Вы не можете отвечать на сообщения
    Вы не можете редактировать свои сообщения
    Вы не можете удалять свои сообщения
    Вы не можете голосовать в опросах
    Вы не можете прикреплять файлы к сообщениям
    Вы можете скачивать файлы