1 сезон

1 сезон

iTunes

1

iTunes

Кинопоиск HD

iTunes

13

1 сезон

RePack

30

Deluxe

ВАЖНО

ИГРА 18+

pack

RePack

MK11
pack

Легкие деньги

RePack

jed

RePack

fifa19

RePack

RDR2

RePack

NEED FOR SPEED™ PAYBACK

4 сезон

9 сезон

Бесстыжие 9 сезон

Все сериалы

все сериалы на PB.wtf

RePack

FAR CRY 5
  
Magnet ссылка

Глубже! (Михаил Сегал) [2020, комедия, WEB-DLRip-AVC] [iTunes] pb.wtf

Глубже! через торрент pb.wtf

Раздают: 61 [ 775 KB/s ] Качают: 3 [ 0 KB/s ]
Размер: 1.4 GB | Добавлен: 10 д. назад | Торрент скачан:130 раз
Скачать  

03-05-2021 10:18 Глубже! Скачать торрент  

Глубже!

Страна: Россия
Жанр: комедия
Год выпуска: 2020
Продолжительность: 01:48:51

Перевод: Не требуется
Субтитры: русские (форсированные)
Оригинальная аудиодорожка: русский

Режиссер: Михаил Сегал

В ролях: Александр Паль, Любовь Аксенова, Олег Гаас, Игорь Угольников, Игорь Верник, Семен Трескунов, Екатерина Соколова, Денис Васильев, Сергей Бурунов, Антон Лапенко

Описание: Молодой режиссер, мастер психологической глубины, попадает в порно-индустрию и заставляет всех играть по своим правилам. Никогда еще порно не было таким глубоким!



Релиз:

Автор рипа: stalkerok

Сэмпл

Качество видео: WEB-DLRip-AVC | Исходник: Glubzhe.2020.1080p.WEB-DL.DD5.1.H.264-EniaHD (thx karvai)
Формат видео: MKV
Видео кодек: AVC
Аудио кодек: AC3
Видео: AVC, 1457 Кбит/сек, 1072x450 (2.40:1), 24 кадр/сек
Аудио: AC3, 384 Кбит/сек, 48 КГц, 5.1 - русский
Навигация по главам: есть
---[Information] [03.05.2021 12:32:31] x264 [info]: frame I:1166 Avg QP:15.18 size: 64761
---[Information] [03.05.2021 12:32:31] x264 [info]: frame P:32708 Avg QP:17.00 size: 18099
---[Information] [03.05.2021 12:32:31] x264 [info]: frame B:122876 Avg QP:19.58 size: 4250
---[Information] [03.05.2021 12:32:31] x264 [info]: consecutive B-frames: 2.2% 2.4% 7.8% 9.6% 8.5% 66.8% 1.7% 0.4% 0.2% 0.1% 0.0% 0.1% 0.0% 0.0% 0.0% 0.2%

General
Unique ID : 263412324221995420359134521035396130596 (0xC62B5E48839EE69F788076EA4856A724)
Complete name : J:\Glubzhe.2020\Glubzhe.2020.WEB-DLRip.x264.Rus.stalkerok.New-Team.mkv
Format : Matroska
Format version : Version 4
File size : 1.40 GiB
Duration : 1 h 48 min
Overall bit rate : 1 843 kb/s
Movie name : Глубже! (2020) | Rip by stalkerok
Encoded date : UTC 2021-05-03 09:36:43
Writing application : mkvmerge v56.1.0 ('My Friend') 64-bit
Writing library : libebml v1.4.2 + libmatroska v1.6.4

Video
ID : 1
Format : AVC
Format/Info : Advanced Video Codec
Format profile : High@L4.1
Format settings : CABAC / 12 Ref Frames
Format settings, CABAC : Yes
Format settings, Reference frames : 12 frames
Codec ID : V_MPEG4/ISO/AVC
Duration : 1 h 48 min
Bit rate : 1 457 kb/s
Width : 1 072 pixels
Height : 450 pixels
Display aspect ratio : 2.40:1
Frame rate mode : Constant
Frame rate : 24.000 FPS
Color space : YUV
Chroma subsampling : 4:2:0
Bit depth : 8 bits
Scan type : Progressive
Bits/(Pixel*Frame) : 0.126
Stream size : 1.11 GiB (79%)
Title : Rip by stalkerok
Writing library : x264 core 161 r3043+53M 5ab00ad t_mod_New [(8 & 10)-bit@all X86_64]
Encoding settings : cabac=1 / ref=12 / deblock=1:-3:-2 / analyse=0x3:0x133 / me=umh / subme=10 / psy=1 / fade_compensate=0.00 / psy_rd=1.00:0.00 / mixed_ref=1 / me_range=32 / chroma_me=1 / trellis=2 / 8x8dct=1 / cqm=0 / deadzone=21,11 / fast_pskip=0 / chroma_qp_offset=-2 / threads=12 / lookahead_threads=3 / sliced_threads=0 / nr=0 / decimate=1 / interlaced=0 / bluray_compat=0 / constrained_intra=0 / fgo=0 / bframes=15 / b_pyramid=2 / b_adapt=2 / b_bias=0 / direct=3 / weightb=1 / open_gop=0 / weightp=2 / keyint=240 / keyint_min=24 / scenecut=40 / intra_refresh=0 / rc_lookahead=60 / rc=crf / mbtree=0 / crf=18.1000 / qcomp=0.65 / qpmin=0:0:0 / qpmax=69:69:69 / qpstep=4 / vbv_maxrate=50000 / vbv_bufsize=62500 / crf_max=0.0 / nal_hrd=none / filler=0 / ip_ratio=1.40 / pb_ratio=1.30 / aq=3:0.80 / aq-sensitivity=10.00 / aq-factor=1.00:1.00:1.00 / aq2=0 / aq3=0
Default : Yes
Forced : No

Audio
ID : 2
Format : AC-3
Format/Info : Audio Coding 3
Commercial name : Dolby Digital
Codec ID : A_AC3
Duration : 1 h 48 min
Bit rate mode : Constant
Bit rate : 384 kb/s
Channel(s) : 6 channels
Channel layout : L R C LFE Ls Rs
Sampling rate : 48.0 kHz
Frame rate : 31.250 FPS (1536 SPF)
Compression mode : Lossy
Stream size : 299 MiB (21%)
Language : Russian
Service kind : Complete Main
Default : Yes
Forced : No

Text
ID : 3
Format : UTF-8
Codec ID : S_TEXT/UTF8
Codec ID/Info : UTF-8 Plain Text
Duration : 26 s 667 ms
Bit rate : 106 b/s
Count of elements : 7
Stream size : 354 Bytes (0%)
Title : Forced
Language : Russian
Default : Yes
Forced : No

Menu
00:00:00.000 : Глава 1
00:08:11.791 : Глава 2
00:16:30.999 : Глава 3
00:24:54.540 : Глава 4
00:33:03.998 : Глава 5
00:41:22.914 : Глава 6
00:51:20.705 : Глава 7
00:59:45.746 : Глава 8
01:08:39.454 : Глава 9
01:16:51.204 : Глава 10
01:25:00.495 : Глава 11
01:33:05.620 : Глава 12
01:41:39.495 : Глава 13
pb.wtf



Скачать Глубже! через торрент http://i6.imageban.ru/out/2017/09/18/2ff75c0c358795c5946784cc1680714d.png Скачать фильм Глубже! через торрент бесплантно в хорошем качестве Описание: Молодой режиссер, мастер психологической глубины, попадает в порно-индустрию и заставляет всех играть по своим правилам. Никогда ... 8.7 10 7
Info! Золотая раздача, скачанное не засчитывается.
Торрент: Зарегистрирован [2021-05-03 10:18] · скачан: 130 раз
Статус: √ проверено
Размер: 1.4 GB
Как cкачать? Как скачать Глубже! через торрент | UTorrent

% Раздел Тема Автор DL S | L
Наши новые фильмы 2020 - 2021 [ 753 MB ] Глубже! [2020 WEB-DLRip] bober100 Скачать
6 | 0
Наши новые фильмы 2020 - 2021 [ 1.45 GB ] Глубже! [2020 WEB-DLRip-AVC] [RUS] от MediaBit Lithuania Скачать
11 | 0
Наши фильмы (HD, WEB-DL 720p, 1080p) [ 3.35 GB ] Глубже! [2020 WEB-DL 720p] bober100 Скачать
4 | 0
Наши фильмы (HD, WEB-DL 720p, 1080p) [ 3.76 GB ] Глубже! [2020 WEB-DL 1080p] bober100 Скачать
14 | 0
Наши новые фильмы 2020 - 2021 [ 1.46 GB ] Глубже! [2020 WEB-DLRip] bober100 Скачать
5 | 0
Порно фильмы с сюжетом [ 1.82 GB ] Закопай Ее Поглубже / Lay Her Down [2017 Feature Teens Horror DVDRip Оригинальный] Pir@tya2010 Скачать
1 | 0
Гонзо [ 2.78 GB ] Кончай в Меня Глубже! / Cum Deep In Me! [2017 All Sex Oral Gonzo Legal Teen Cream Pie WEB-DLRip 360p] Split Scenes sheker187 Скачать
1 | 0

28-11-2019 20:33  

Отключить всю рекламу на сайте


03-05-2021 16:03 Глубже! Скачать торрент  

херня из ху...ни.pb.wtf



03-05-2021 17:45 Глубже! Скачать торрент  

где цензура???pb.wtf



05-05-2021 13:58 Глубже! Скачать торрент  

12-летним будет интересноpb.wtf



    Дорогой пользователь! Огромная просьба, поблагодарите релизера, оцените раздачу и оставьте свои комментарий, если Вы скачали Глубже! через торрент бесплатно! Внесите свою лепту в развитие PiratBit!
    Комментировать посты могут только пользователи прошедшие не сложную регистрацию
    Показать сообщения:    

    Глубже! через торрент
    Скачать бесплатно Глубже!
    Глубже! скачать торрент
    Глубже! смотреть онлайн
    Cкачать фильм Глубже! бесплатно
    Глубже! скачать торрент в хорошем качестве
    Глубже! смотреть онлайн бесплатно в хорошем качестве


    Вы не можете начинать темы
    Вы не можете отвечать на сообщения
    Вы не можете редактировать свои сообщения
    Вы не можете удалять свои сообщения
    Вы не можете голосовать в опросах
    Вы не можете прикреплять файлы к сообщениям
    Вы можете скачивать файлы