1 сезон

3 сезон

iTunes

1

iTunes

DUB Netflix

iTunes

13

1 сезон

RePack

30

Deluxe

pack

Легкие деньги

ВАЖНО

ИГРА 18+

pack

RePack

MK11

RePack

jed

RePack

fifa19

RePack

RDR2

RePack

NEED FOR SPEED™ PAYBACK

4 сезон

9 сезон

Бесстыжие 9 сезон

Все сериалы

все сериалы на PB.wtf

RePack

FAR CRY 5

Anonymous, доброе утро, мы не успеваем до 1 числа собрать деньги на оплату серверов, помогите нам пожалуйста в это трудное время. В качестве благодарности мы отключим Вам всю рекламу на сайте (укажите свой ник в строку Ваше имя)!

×
  
Magnet ссылка

Сидящие в засаде / The Ambushers (Генри Левин) [1967 г., Фантастика, боевик, комедия, BDRip 720p, Любительский (одноголосый)] от ExKinoRay pb.wtf

Сидящие в засаде через торрент pb.wtf

Раздают: 1 [ 0 KB/s ]
Размер: 6.33 GB | Добавлен: 1 мес. 11 д. назад | Торрент скачан:11 раз
Скачать  

03-05-2021 12:37 Сидящие в засаде Скачать торрент  

Сидящие в засаде / The Ambushers
Год выпуска: 1967
Страна: США
Жанр: Фантастика, боевик, комедия
Продолжительность: 01:41:56
Перевод: Любительский (одноголосый)
Субтитры: Английские

Режиссер: Генри Левин

Премьера в мире: 20 декабря 1967

rating

В ролях: Дин Мартин, Зента Бергер, Дженис Рул, Джеймс Грегори, Альберт Сэлми, Курт Казнар, Беверли Адамс, Дэвид Мауро, Рой Дженсон, Джон Брашиа

Описание: По правительственному заданию в США создают и запускают в космос летающую тарелку. Однако во время испытательного полёта, благодаря чудесам научной мысли, тарелка и пилотировавшая её женщина попадают в руки злодея Ортеги, обосновавшегося на своей секретной базе где-то в Мексике. На поиски пропажи отправляется секретный агент Мэтт Хельм.

Качество: BDRip 720p
Формат: MKV
Видео кодек: MPEG4
Аудио кодек: AC3
Видео: 8500 Кбит/с, 1280x720, 23.976 кадра/сек
Аудио#1: Русский (AC3, 2 ch, 192 Кбит/с, 48 КГц)
Аудио#2: Английский (AC3, 2 ch, 192 Кбит/с, 48 КГц)

x264 [info]: profile High, level 4.1
x264 [info]: frame I:1074 Avg QP:18.41 size:185121
x264 [info]: frame P:30697 Avg QP:20.74 size: 72553
x264 [info]: frame B:114870 Avg QP:22.41 size: 35447
-----
Общее
Уникальный идентификатор : 222990533208480208245260716089960638182 (0xA7C26A1E1EF4EB18A57812E8BE0926E6)
Полное имя : D:\EKR\Ambushers.1967.BDRip720p.ExKinoRay.mkv
Формат : Matroska
Версия формата : Version 2
Размер файла : 6,33 Гбайт
Продолжительность : 1 ч. 41 м.
Общий поток : 8885 Кбит/сек
Дата кодирования : UTC 2021-05-03 10:56:30
Программа кодирования : mkvmerge v7.8.0 ('River Man') 32bit built on Apr 3 2015 12:11:22
Библиотека кодирования : libebml v1.3.1 + libmatroska v1.4.2

Видео
Идентификатор : 1
Формат : AVC
Формат/Информация : Advanced Video Codec
Профиль формата : High@L4.1
Настройки формата : CABAC / 9 Ref Frames
Параметр CABAC формата : Да
Параметр RefFrames формата : 9 кадров
Идентификатор кодека : V_MPEG4/ISO/AVC
Продолжительность : 1 ч. 41 м.
Битрейт : 8500 Кбит/сек
Ширина : 1280 пикселей
Высота : 720 пикселей
Соотношение сторон : 16:9
Режим частоты кадров : Постоянный
Частота кадров : 23,976 (24000/1001) кадра/сек
Цветовое пространство : YUV
Субдискретизация насыщенности : 4:2:0
Битовая глубина : 8 бит
Тип развёртки : Прогрессивная
Бит/(Пиксели*Кадры) : 0.385
Размер потока : 5,93 Гбайт (94%)
Библиотека кодирования : x264 core 152 r2851 ba24899
Настройки программы : cabac=1 / ref=9 / deblock=1:-3:-2 / analyse=0x3:0x113 / me=umh / subme=10 / psy=1 / psy_rd=1.00:0.10 / mixed_ref=1 / me_range=32 / chroma_me=1 / trellis=2 / 8x8dct=1 / cqm=0 / deadzone=21,11 / fast_pskip=0 / chroma_qp_offset=-3 / threads=6 / lookahead_threads=1 / sliced_threads=0 / nr=0 / decimate=0 / interlaced=0 / bluray_compat=0 / constrained_intra=0 / bframes=10 / b_pyramid=2 / b_adapt=2 / b_bias=0 / direct=3 / weightb=1 / open_gop=0 / weightp=2 / keyint=240 / keyint_min=23 / scenecut=40 / intra_refresh=0 / rc=2pass / mbtree=0 / bitrate=8500 / ratetol=1.0 / qcomp=0.60 / qpmin=0 / qpmax=69 / qpstep=4 / cplxblur=20.0 / qblur=0.5 / ip_ratio=1.40 / pb_ratio=1.30 / aq=3:1.00
Язык : English
Default : Да
Forced : Нет
Цветовой диапазон : Limited
Основные цвета : BT.709
Характеристики трансфера : BT.709
Коэффициенты матрицы : BT.709

Аудио #1
Идентификатор : 2
Формат : AC-3
Формат/Информация : Audio Coding 3
Коммерческое название : Dolby Digital
Идентификатор кодека : A_AC3
Продолжительность : 1 ч. 41 м.
Вид битрейта : Постоянный
Битрейт : 192 Кбит/сек
Каналы : 2 канала
Channel layout : L R
Частота : 48,0 КГц
Частота кадров : 31,250 кадров/сек (1536 SPF)
Битовая глубина : 16 бит
Метод сжатия : С потерями
Размер потока : 140 Мбайт (2%)
Заголовок : Любительский одноголосый
Язык : Russian
ServiceKind/String : Complete Main
Default : Да
Forced : Нет

Аудио #2
Идентификатор : 3
Формат : AC-3
Формат/Информация : Audio Coding 3
Коммерческое название : Dolby Digital
Идентификатор кодека : A_AC3
Продолжительность : 1 ч. 41 м.
Вид битрейта : Постоянный
Битрейт : 192 Кбит/сек
Каналы : 2 канала
Channel layout : L R
Частота : 48,0 КГц
Частота кадров : 31,250 кадров/сек (1536 SPF)
Битовая глубина : 16 бит
Метод сжатия : С потерями
Размер потока : 140 Мбайт (2%)
Язык : English
ServiceKind/String : Complete Main
Default : Нет
Forced : Нет

Текст
Идентификатор : 4
Формат : UTF-8
Идентификатор кодека : S_TEXT/UTF8
Идентификатор кодека/Информация : UTF-8 Plain Text
Язык : English
Default : Нет
Forced : Нет

Меню
00:00:00.000 : en:Chapter 1
00:14:14.395 : en:Chapter 2
00:27:57.426 : en:Chapter 3
00:42:10.236 : en:Chapter 4
00:54:34.938 : en:Chapter 5
01:06:13.094 : en:Chapter 6
01:19:22.967 : en:Chapter 7
01:30:34.638 : en:Chapter 8

pb.wtf



Скачать Сидящие в засаде через торрент http://d.radikal.ru/d10/2105/1e/9b2252b6724f.jpg Скачать фильм Сидящие в засаде через торрент бесплантно в хорошем качестве Описание: По правительственному заданию в США создают и запускают в космос летающую тарелку. Однако во время испытательного полёта, ... 10 10 1
Info! Золотая раздача, скачанное не засчитывается.
Торрент: Зарегистрирован [2021-05-03 12:37] · скачан: 11 раз
Статус: √ проверено
Размер: 6.33 GB
Как cкачать? Как скачать Сидящие в засаде через торрент | UTorrent

28-11-2019 20:33  

Отключить всю рекламу на сайте

    Дорогой пользователь! Огромная просьба, поблагодарите релизера, оцените раздачу и оставьте свои комментарий, если Вы скачали Сидящие в засаде через торрент бесплатно! Внесите свою лепту в развитие PiratBit!
    Комментировать посты могут только пользователи прошедшие не сложную регистрацию
    Показать сообщения:    

    Сидящие в засаде через торрент
    Скачать бесплатно Сидящие в засаде
    Сидящие в засаде скачать торрент
    Сидящие в засаде смотреть онлайн
    Cкачать фильм Сидящие в засаде бесплатно
    Сидящие в засаде скачать торрент в хорошем качестве
    Сидящие в засаде смотреть онлайн бесплатно в хорошем качестве


    Вы не можете начинать темы
    Вы не можете отвечать на сообщения
    Вы не можете редактировать свои сообщения
    Вы не можете удалять свои сообщения
    Вы не можете голосовать в опросах
    Вы не можете прикреплять файлы к сообщениям
    Вы можете скачивать файлы