1 сезон

1 сезон

iTunes

1

iTunes

Кинопоиск HD

iTunes

13

1 сезон

RePack

30

Deluxe

ВАЖНО

ИГРА 18+

pack

RePack

MK11
pack

Легкие деньги

RePack

jed

RePack

fifa19

RePack

RDR2

RePack

NEED FOR SPEED™ PAYBACK

4 сезон

9 сезон

Бесстыжие 9 сезон

Все сериалы

все сериалы на PB.wtf

RePack

FAR CRY 5
  
Magnet ссылка

Среди камней / Darklands / Сезон: 1 / Серии: 1-6 из 6 (Марк О’Коннор, Конор МакМахон) [2019, драма, криминал, WEB-DL 1080p] [DUB] (MOYGOLOS) pb.wtf

Среди камней через торрент pb.wtf

Раздают: 2 [ 2 MB/s ] Качают: 1 [ 0 KB/s ]
Размер: 12.9 GB | Добавлен: 10 д. назад | Торрент скачан:22 раза
Скачать  

03-05-2021 16:35 Среди камней Скачать торрент  

Среди камней / Darklands Год выхода: 2019
Жанр: Драма, криминал
Страна: Ирландия
Студия: Parallel Television Productions, Stalker Films
Продолжительность: 6 x ~ 00:47:00
Перевод: Дублированный | Студия MOYGOLOS (Озвучено по заказу видео сервиса START в 2021 году)

Режиссер: Марк О’Коннор, Конор МакМахон

В ролях: Дэйн Уайт О’Хара, Томмас Кэйн-Бирн, Джудит Родди, Марк О’Халлоран, Джимми Смоллхорн, Барбара Бергин, Эшлинг Кернс, Кайл Брэдли Дональдсон, Дэррен Хили, Фионн Уолтон, Райан Берк, Лорна Мид, Шаши Рэми, Люк Маккуиллан, Киллиан О’Гэйрби, Алиша Вейр, Киаран Фаган, Шарлотта Брэдли, Финн Гиллеспи, Адам Коутс, Дэмиэн Гилди, Сан Шелла, Кристин Бэйли, Стивен Клинч, Фергус Кэвэна, Тристан Хинью, Киан Мерфи, Джек Гэлвин, Тара Каш, Лаура Мюррэй, Энтони Моррис, Дерек Блэк, Джон Пол О’Дрисколл, Уэсли О’Дьюинн

Описание: Семнадцатилетний Дэмиен мечтает вырваться за пределы своего района и стать профессиональным бойцом. Когда его кумир и старший брат исчезает, парень попадает в чуждый ему мир насилия, наркотиков и жестоких банд. Боец ММА ввязывается в войну банд, чтобы найти пропавшего брата-гангстера. Героя ждёт главная схватка в его жизни.

rating

Качество: WEBRip 1080p
Формат: MKV
Видео: MPEG-4 AVC, ~ 6480 Кбит/с, 1920x1080
Звук: AC3, 2 ch, 256 Кбит/с
Субтитры: Отсутствуют

Автор релиза:

Версия 18+

Примечание: Без рекламы
скриншот  скриншот  скриншот  
Общее

Уникальный идентификатор : 170166693754397117564245360596494954869 (0x8004E9C12D4DAD279794D5866065B175)

Полное имя : D:Darklands.[Sredi.Kamnej].S01.2019.D.WEB-DL.1080p.7turzaE01.S01.Darklands.[Sredi.Kamnej].2019.D.WEB-DL.1080p.7turza.mkv

Формат : Matroska

Версия формата : Version 4

Размер файла : 2,15 Гбайт

Продолжительность : 46 м. 21 с.

Общий поток : 6637 Кбит/сек

Название фильма : E01.S01.Darklands.[Sredi.Kamnej].2019.D.WEB-DL.1080p.7turza

Дата кодирования : UTC 2021-03-08 06:55:30

Программа кодирования : mkvmerge v55.0.0 ('Waiting For Space') 64-bit

Библиотека кодирования : libebml v1.4.2 + libmatroska v1.6.4

Attachments : poster.png

Видео

Идентификатор : 1

Формат : AVC

Формат/Информация : Advanced Video Codec

Профиль формата : High@L4

Настройки формата : CABAC / 4 Ref Frames

Параметр CABAC формата : Да

Параметр RefFrames формата : 4 кадра

Идентификатор кодека : V_MPEG4/ISO/AVC

Продолжительность : 46 м. 21 с.

Битрейт : 6480 Кбит/сек

Ширина : 1920 пикселей

Высота : 1080 пикселей

Соотношение сторон : 16:9

Режим частоты кадров : Постоянный

Частота кадров : 25,000 кадров/сек

Цветовое пространство : YUV

Субдискретизация насыщенности : 4:2:0

Битовая глубина : 8 бит

Тип развёртки : Прогрессивная

Бит/(Пиксели*Кадры) : 0.125

Размер потока : 2,07 Гбайт (96%)

Библиотека кодирования : x264 core 152

Настройки программы : cabac=1 / ref=2 / deblock=1:0:0 / analyse=0x3:0x113 / me=hex / subme=6 / psy=1 / psy_rd=1.00:0.00 / mixed_ref=1 / me_range=16 / chroma_me=1 / trellis=1 / 8x8dct=1 / cqm=0 / deadzone=21,11 / fast_pskip=1 / chroma_qp_offset=-2 / threads=12 / lookahead_threads=2 / sliced_threads=0 / nr=0 / decimate=1 / interlaced=0 / bluray_compat=0 / constrained_intra=0 / bframes=3 / b_pyramid=2 / b_adapt=1 / b_bias=0 / direct=1 / weightb=1 / open_gop=0 / weightp=1 / keyint=250 / keyint_min=25 / scenecut=40 / intra_refresh=0 / rc_lookahead=30 / rc=abr / mbtree=1 / bitrate=6480 / ratetol=1.0 / qcomp=0.60 / qpmin=0 / qpmax=69 / qpstep=4 / vbv_maxrate=7776 / vbv_bufsize=15552 / nal_hrd=none / filler=0 / ip_ratio=1.40 / aq=1:1.00

Default : Да

Forced : Нет

Цветовой диапазон : Limited

Основные цвета : BT.709

Характеристики трансфера : BT.709

Коэффициенты матрицы : BT.709

Аудио

Идентификатор : 2

Формат : AC-3

Формат/Информация : Audio Coding 3

Коммерческое название : Dolby Digital

Идентификатор кодека : A_AC3

Продолжительность : 46 м. 21 с.

Вид битрейта : Постоянный

Битрейт : 256 Кбит/сек

Каналы : 2 канала

ChannelLayout : L R

Частота : 48,0 КГц

Частота кадров : 31,250 кадров/сек (1536 SPF)

Метод сжатия : С потерями

Задержка видео : -80 мс.

Размер потока : 84,9 Мбайт (4%)

ServiceKind : Complete Main

Default : Да

Forced : Нет
pb.wtf



Скачать Среди камней через торрент https://b.radikal.ru/b35/2103/06/8909f327ea3e.png Скачать фильм Среди камней через торрент бесплантно в хорошем качестве Описание: Семнадцатилетний Дэмиен мечтает вырваться за пределы своего района и стать профессиональным бойцом. Когда его кумир и старший ... 10 10 1
Торрент: Зарегистрирован [2021-05-03 16:35] · скачан: 22 раз
Статус: √ проверено
Размер: 12.9 GB
Как cкачать? Как скачать Среди камней через торрент | UTorrent

28-11-2019 20:33  

Отключить всю рекламу на сайте

04-05-2021 13:47 Среди камней Скачать торрент  

как сериал ребята?pb.wtf



    Дорогой пользователь! Огромная просьба, поблагодарите релизера, оцените раздачу и оставьте свои комментарий, если Вы скачали Среди камней через торрент бесплатно! Внесите свою лепту в развитие PiratBit!
    Комментировать посты могут только пользователи прошедшие не сложную регистрацию
    Показать сообщения:    

    Среди камней через торрент
    Скачать бесплатно Среди камней
    Среди камней скачать торрент
    Среди камней смотреть онлайн
    Cкачать фильм Среди камней бесплатно
    Среди камней скачать торрент в хорошем качестве
    Среди камней смотреть онлайн бесплатно в хорошем качестве


    Вы не можете начинать темы
    Вы не можете отвечать на сообщения
    Вы не можете редактировать свои сообщения
    Вы не можете удалять свои сообщения
    Вы не можете голосовать в опросах
    Вы не можете прикреплять файлы к сообщениям
    Вы можете скачивать файлы