1 сезон

1 сезон

iTunes

1

iTunes

Кинопоиск HD

iTunes

13

1 сезон

RePack

30

GLOBAL

ВАЖНО

ИГРА 18+

pack

RePack

MK11
pack

Легкие деньги

RePack

jed

RePack

fifa19

RePack

RDR2

RePack

NEED FOR SPEED™ PAYBACK

4 сезон

9 сезон

Бесстыжие 9 сезон

Все сериалы

все сериалы на PB.wtf

RePack

FAR CRY 5
  
Magnet ссылка

В ринге только девушки / Женская драка / Chick Fight (Пол Лейден) [2020, Боевик, драма, комедия, спорт, НDRip-AVC] DUB [Tunes] от MediaBit pb.wtf

В ринге только девушки через торрент pb.wtf

Раздают: 6 [ 68 KB/s ]
Размер: 2.05 GB | Добавлен: 11 д. назад | Торрент скачан:113 раз
Скачать  

04-05-2021 02:52 В ринге только девушки Скачать торрент  


В ринге только девушки / Chick Fight
Информация о фильме:
Название: В ринге только девушки
Оригинальное название: Chick Fight
Год выхода: 2020
Жанр: Боевик, драма, комедия, спорт
Режиссер: Пол Лейден

В ролях: Белла Торн, Малин Акерман, Алек Болдуин, Джули Майклс, Кевин Коннолли, Кевин Нэш, Фортун Феймстер, Доминик Джексон, Алек Мапа, Мариана Паола Висенте

Описание: Анна Винкомб переживает не лучшие времена. Она страдает из-за смерти матери, не может смириться с каминг-аутом отца и потерей бизнеса. Подруга Анны, видя, что та находится на грани, приводит ее в подпольный бойцовский клуб для женщин. Здесь женщины дерутся друг с другом, утилизируя негативные эмоции на ринге.



Страна: США
Студия: Yale Productions, Media Finance Capital, Idiot Savant Pictures
Продолжительность: 01:37:21
Перевод: Дублированный - iTunes



Информация о файле:
Кодек: AVC
Формат: MKV
Качество: НDRip-AVC
Видео: MPEG-4 AVC, 1024x428, 23.976 fps, 1797 kbps
Аудио RU: AC3, 6 ch, 48 kHz, 384 kbps
Аудио EN: AC3, 6 ch, 48 kHz, 448 kbps
Аудио UKR: AC3, 6 ch, 48 kHz, 384 kbps
Субтитры: Английские
Навигация по главам: Да

x264 info: frame I:1123 Avg QP:14.48 size: 62195
x264 info: frame P:36206 Avg QP:18.60 size: 19007
x264 info: frame B:102717 Avg QP:20.52 size: 5178
General
Unique ID : 79025504494645608231273404470272391230 (0x3B73C2302DD8FEF6525B0D4DE6D2F83E)
Complete name : D:uTorrentРипы_от_wolf1245_MediaBitChick Fight.2020.DUB.iTunes.НDRip-AVC.[wolf1245.MediaBit].mkv
Format : Matroska
Format version : Version 4
File size : 2.05 GiB
Duration : 1 h 37 min
Overall bit rate : 3 014 kb/s
Movie name : Chick Fight.2020.DUB.iTunes.НDRip-AVC.[wolf1245.MediaBit]
Encoded date : UTC 2021-05-04 02:34:55
Writing application : mkvmerge v56.1.0 ('My Friend') 64-bit
Writing library : libebml v1.4.2 + libmatroska v1.6.4
Video
ID : 1
Format : AVC
Format/Info : Advanced Video Codec
Format profile : High@L4.1
Format settings : CABAC / 12 Ref Frames
Format settings, CABAC : Yes
Format settings, Reference frames : 12 frames
Codec ID : V_MPEG4/ISO/AVC
Duration : 1 h 37 min
Bit rate : 1 797 kb/s
Width : 1 024 pixels
Height : 428 pixels
Display aspect ratio : 2.40:1
Frame rate mode : Constant
Frame rate : 23.976 (24000/1001) FPS
Color space : YUV
Chroma subsampling : 4:2:0
Bit depth : 8 bits
Scan type : Progressive
Bits/(Pixel*Frame) : 0.171
Stream size : 1.22 GiB (60%)
Title : .[wolf1245.MediaBit]
Writing library : x264 core 157 r2958 57baac4
Encoding settings : cabac=1 / ref=12 / deblock=1:-3:-3 / analyse=0x3:0x133 / me=umh / subme=11 / psy=1 / psy_rd=1.02:0.05 / mixed_ref=1 / me_range=48 / chroma_me=1 / trellis=2 / 8x8dct=1 / cqm=0 / deadzone=21,11 / fast_pskip=1 / chroma_qp_offset=-3 / threads=10 / lookahead_threads=2 / sliced_threads=0 / nr=0 / decimate=1 / interlaced=0 / bluray_compat=0 / constrained_intra=0 / bframes=10 / b_pyramid=2 / b_adapt=2 / b_bias=0 / direct=3 / weightb=1 / open_gop=0 / weightp=2 / keyint=240 / keyint_min=24 / scenecut=40 / intra_refresh=0 / rc_lookahead=100 / rc=2pass / mbtree=1 / bitrate=1797 / ratetol=1.0 / qcomp=0.60 / qpmin=0 / qpmax=69 / qpstep=4 / cplxblur=20.0 / qblur=0.5 / vbv_maxrate=50000 / vbv_bufsize=62500 / nal_hrd=none / filler=0 / ip_ratio=1.40 / aq=1:0.80
Language : English
Default : Yes
Forced : No
Color range : Limited
Color primaries : BT.709
Transfer characteristics : BT.709
Matrix coefficients : BT.709
Audio #1
ID : 2
Format : AC-3
Format/Info : Audio Coding 3
Commercial name : Dolby Digital
Codec ID : A_AC3
Duration : 1 h 37 min
Bit rate mode : Constant
Bit rate : 384 kb/s
Channel(s) : 6 channels
Channel layout : L R C LFE Ls Rs
Sampling rate : 48.0 kHz
Frame rate : 31.250 FPS (1536 SPF)
Compression mode : Lossy
Stream size : 267 MiB (13%)
Title : DUB | (iTunes)
Language : Russian
Service kind : Complete Main
Default : Yes
Forced : No
Audio #2
ID : 3
Format : AC-3
Format/Info : Audio Coding 3
Commercial name : Dolby Digital
Codec ID : A_AC3
Duration : 1 h 37 min
Bit rate mode : Constant
Bit rate : 384 kb/s
Channel(s) : 6 channels
Channel layout : L R C LFE Ls Rs
Sampling rate : 48.0 kHz
Frame rate : 31.250 FPS (1536 SPF)
Compression mode : Lossy
Stream size : 267 MiB (13%)
Title : DUB | (iTunes)
Language : Ukrainian
Service kind : Complete Main
Default : No
Forced : No
Audio #3
ID : 4
Format : AC-3
Format/Info : Audio Coding 3
Commercial name : Dolby Digital
Codec ID : A_AC3
Duration : 1 h 37 min
Bit rate mode : Constant
Bit rate : 448 kb/s
Channel(s) : 6 channels
Channel layout : L R C LFE Ls Rs
Sampling rate : 48.0 kHz
Frame rate : 31.250 FPS (1536 SPF)
Compression mode : Lossy
Stream size : 312 MiB (15%)
Title : Original
Language : English
Service kind : Complete Main
Default : No
Forced : No
Text
ID : 5
Format : UTF-8
Codec ID : S_TEXT/UTF8
Codec ID/Info : UTF-8 Plain Text
Duration : 1 h 37 min
Bit rate : 86 b/s
Count of elements : 2140
Stream size : 61.5 KiB (0%)
Language : English
Default : No
Forced : No
Menu
00:00:00.000 : :00:00:00.000
00:07:05.342 : :00:07:05.342
00:14:28.201 : :00:14:28.201
00:20:13.838 : :00:20:13.838
00:29:27.099 : :00:29:27.099
00:39:02.590 : :00:39:02.590
00:50:56.804 : :00:50:56.804
00:59:52.756 : :00:59:52.756
01:08:53.129 : :01:08:53.129
01:16:19.950 : :01:16:19.950
01:25:27.706 : :01:25:27.706
01:35:23.259 : :01:35:23.259
Релиз от: &
Автор релиза:
pb.wtf



Скачать В ринге только девушки через торрент https://i114.fastpic.ru/big/2021/0504/62/f941804bebd62a2f3399bf9a77411962.jpg Скачать фильм В ринге только девушки через торрент бесплантно в хорошем качестве Описание: Анна Винкомб переживает не лучшие времена. Она страдает из-за смерти матери, не может смириться с каминг-аутом отца и потерей ... 10 10 7
Торрент: Зарегистрирован [2021-05-04 02:52] · скачан: 113 раз
Статус: √ проверено
Размер: 2.05 GB
Как cкачать? Как скачать В ринге только девушки через торрент | UTorrent

28-11-2019 20:33  

Отключить всю рекламу на сайте

    Дорогой пользователь! Огромная просьба, поблагодарите релизера, оцените раздачу и оставьте свои комментарий, если Вы скачали В ринге только девушки через торрент бесплатно! Внесите свою лепту в развитие PiratBit!
    Комментировать посты могут только пользователи прошедшие не сложную регистрацию
    Показать сообщения:    

    В ринге только девушки через торрент
    Скачать бесплатно В ринге только девушки
    В ринге только девушки скачать торрент
    В ринге только девушки смотреть онлайн
    Cкачать фильм В ринге только девушки бесплатно
    В ринге только девушки скачать торрент в хорошем качестве
    В ринге только девушки смотреть онлайн бесплатно в хорошем качестве


    Вы не можете начинать темы
    Вы не можете отвечать на сообщения
    Вы не можете редактировать свои сообщения
    Вы не можете удалять свои сообщения
    Вы не можете голосовать в опросах
    Вы не можете прикреплять файлы к сообщениям
    Вы можете скачивать файлы