1 сезон

3 сезон

iTunes

1

iTunes

DUB Netflix

iTunes

13

1 сезон

RePack

30

Deluxe

pack

Легкие деньги

ВАЖНО

ИГРА 18+

pack

RePack

MK11

RePack

jed

RePack

fifa19

RePack

RDR2

RePack

NEED FOR SPEED™ PAYBACK

4 сезон

9 сезон

Бесстыжие 9 сезон

Все сериалы

все сериалы на PB.wtf

RePack

FAR CRY 5

Anonymous, добрый день, мы не успеваем до 1 числа собрать деньги на оплату серверов, помогите нам пожалуйста в это трудное время. В качестве благодарности мы отключим Вам всю рекламу на сайте (укажите свой ник в строку Ваше имя)!

×
  
Magnet ссылка

В ринге только девушки / Chick Fight (Пол Лейден) [2020 г., боевик, драма, комедия, спорт, HDRip, Дубляж "iTunes"] pb.wtf

В ринге только девушки через торрент pb.wtf

Раздают: 3 [ 17 KB/s ] Качают: 1 [ 0 KB/s ]
Размер: 711 MB | Добавлен: 1 мес. 13 д. назад | Торрент скачан:32 раза
Скачать  

05-05-2021 18:32 В ринге только девушки Скачать торрент  

В ринге только девушки / Chick Fight
Год выпуска: 2020
Страна: США / Yale Productions, Media Finance Capital, Idiot Savant Pictures
Жанр: боевик, драма, комедия, спорт
Продолжительность: 01:37:21
Перевод: Дубляж i(Tunes)
«Бей как девченка»

Режиссер: Пол Лейден

rating

В ролях: Малин Акерман, Белла Торн, Алек Болдуин, Дульсе Слоун, Кевин Коннолли, Кевин Нэш, Алек Мапа, Доминик Джексон, Фортун Феймстер, Алексия Бальер

Описание: В жизни Анны все резко пошло наперекосяк. Любимая мама умерла, а доброжелательный отец объявил, что он гей. Вдобавок она случайно сожгла собственную кофейню. Пытаясь помочь, лучшая подруга Анны Шарлин приводит девушку в подпольный женский бойцовский клуб.

Качество: HDRip
Формат: AVI
Видео кодек: DivX
Аудио кодек: MP3
Видео: 640x272 (2.35:1), 23.976 fps, DivX Codec 4.x ~883 kbps avg, 0.21 bit/pixel
Аудио: 48 kHz, MPEG Layer 3, 2 ch, ~128.00 kbps avg








Общее
Полное имя : G:\ФИЛЬМЫ\В ринге только девушки.2020.D.HDRip.avi
Формат : AVI
Формат/Информация : Audio Video Interleave
Размер файла : 711 Мбайт
Продолжительность : 1 ч. 37 м.
Общий поток : 1 021 Кбит/сек
Программа кодирования : VirtualDubMod 1.5.10.3 | www.virtualdub-fr.org || (build 2550/release)
Библиотека кодирования : VirtualDubMod build 2550/release

Видео
Идентификатор : 0
Формат : MPEG-4 Visual
Профиль формата : Advanced Simple@L5
Настройки формата : BVOP2
Параметр BVOP формата : 2
Параметр QPel формата : Нет
Параметр GMC формата : Без точки перехода
Параметр матрицы формата : Default (MPEG)
Идентификатор кодека : DIVX
Идентификатор кодека/Информация : Project Mayo
Идентификатор кодека/Подсказка : DivX 4
Продолжительность : 1 ч. 37 м.
Битрейт : 883 Кбит/сек
Ширина : 640 пикселей
Высота : 272 пикселя
Соотношение сторон : 2,35:1
Частота кадров : 23,976 (24000/1001) кадра/сек
Цветовое пространство : YUV
Субдискретизация насыщенности : 4:2:0
Битовая глубина : 8 бит
Тип развёртки : Прогрессивная
Метод сжатия : С потерями
Бит/(Пиксели*Кадры) : 0.212
Размер потока : 615 Мбайт (87%)
Библиотека кодирования : XviD 1.2.1 (UTC 2008-12-04)

Аудио
Идентификатор : 1
Формат : MPEG Audio
Версия формата : Version 1
Профиль формата : Layer 3
Настройки формата : Joint stereo / MS Stereo
Идентификатор кодека : 55
Идентификатор кодека/Подсказка : MP3
Продолжительность : 1 ч. 37 м.
Вид битрейта : Постоянный
Битрейт : 128 Кбит/сек
Каналы : 2 канала
Частота : 48,0 КГц
Частота кадров : 41,667 кадра/сек (1152 SPF)
Метод сжатия : С потерями
Размер потока : 89,1 Мбайт (13%)
Выравнивание : Соединение по промежуткам
Продолжительность промежутка : 42 мс. (1,00 видеокадр)
Время предзагрузки промежутка : 504 мс.
Библиотека кодирования : LAME3.99r
Настройки программы : -m j -V 4 -q 2 -lowpass 17 -b 128

Report created by : MediaInfoLib - v21.03
Report created on : UTC 2021-05-05 18:19:43

pb.wtf



Скачать В ринге только девушки через торрент https://pic1.kartinco.top/new/img/2021-05/05/72efwb74j04r4kidykg5ufprp.jpg Скачать фильм В ринге только девушки через торрент бесплантно в хорошем качестве Описание: В жизни Анны все резко пошло наперекосяк. Любимая мама умерла, а доброжелательный отец объявил, что он гей. Вдобавок она случайно ... 10 10 4
Торрент: Зарегистрирован [2021-05-05 18:32] · скачан: 32 раз
Статус: √ проверено
Размер: 711 MB
Как cкачать? Как скачать В ринге только девушки через торрент | UTorrent

% Раздел Тема Автор DL S | L
Фильмы 2019-2020 [DVDrip, WEB-DLRip, HDrip] (DUB, MVO) [ 2.05 GB ] В ринге только девушки / Женская драка / Chick Fight [2020 НDRip-AVC] DUB [Tunes] от MediaBit Lithuania Скачать
2 | 0
Фильмы [HD 720p, 1080p] (Хороший звук DUB, MVO) [ 11.41 GB ] В ринге только девушки / Chick Fight [2020 BDRip 1080p] 2x killermax2013 Скачать
3 | 0

28-11-2019 20:33  

Отключить всю рекламу на сайте


09-05-2021 04:58 В ринге только девушки Скачать торрент  

Самые лучшие кадры видимо были отобраны.pb.wtf



    Дорогой пользователь! Огромная просьба, поблагодарите релизера, оцените раздачу и оставьте свои комментарий, если Вы скачали В ринге только девушки через торрент бесплатно! Внесите свою лепту в развитие PiratBit!
    Комментировать посты могут только пользователи прошедшие не сложную регистрацию
    Показать сообщения:    

    В ринге только девушки через торрент
    Скачать бесплатно В ринге только девушки
    В ринге только девушки скачать торрент
    В ринге только девушки смотреть онлайн
    Cкачать фильм В ринге только девушки бесплатно
    В ринге только девушки скачать торрент в хорошем качестве
    В ринге только девушки смотреть онлайн бесплатно в хорошем качестве


    Вы не можете начинать темы
    Вы не можете отвечать на сообщения
    Вы не можете редактировать свои сообщения
    Вы не можете удалять свои сообщения
    Вы не можете голосовать в опросах
    Вы не можете прикреплять файлы к сообщениям
    Вы можете скачивать файлы