Anonymous, доброй ночи, присоединяйтесь к нам в Telegram!, здесь всегда актуальный адрес сайта, оперативная поддержка и многое другое!

>

5.6

iTunes

7.4

MVO

5.7

MVO

1

7.7

1 сезон

6.8

iTunes

7.3

1 сезон

13

6.7

1 сезон

8.3

RePack

30

ULTIMATE

pack

9.9

Лицензия

ВАЖНО

ИГРА 18+

pack

7.3

RePack

MK11

7.7

RePack

jed

7.8

RePack

fifa19

8.5

RePack

RDR2

RePack

NEED FOR SPEED™ PAYBACK

4 сезон

9 сезон

Бесстыжие 9 сезон

Все сериалы

все сериалы на PB.wtf

RePack

FAR CRY 5

Anonymous, доброй ночи, мы катастрофически не успеваем собрать деньги на оплату серверов, помогите нам пожалуйста 5,10,15р., для нас важна любая помощь . В качестве благодарности мы отключим Вам всю рекламу на сайте (укажите свой ник в строку Ваше имя)!

×
  
Magnet ссылка

8 способов любить / Сезон: 1 / Серии: 1-7 из 8 (Гамлет Дульян) [2021, Драма, мелодрама, комедия, триллер, WEBRip 720p, (Версия 18+)] pb.wtf

8 способов любить через торрент pb.wtf

Размер: 2.16 GB | Добавлен: 4 мес. 21 д. назад | Торрент скачан:10 раз
Смотреть онлайн 8 способов любить | Скачать    Ребята, помогите собрать деньги на оплату серверов!!!

06-05-2021 16:16 8 способов любить Скачать торрент  

8 способов любить
Год выпуска: 2021
Страна: Россия
Выпущено: Кинокомпания NEMESIS FILMS
Жанр: Драма, мелодрама, комедия, триллер
Продолжительность: ~ 00:15:00
Перевод: Не требуется
Субтитры: отсутствуют
Версия 18+.

Режиссер: Гамлет Дульян



В ролях: Кирилл Кяро, Нино Нинидзе, Александр Яценко, Нелли Уварова, София Петрова, Алексей Маклаков, Ольга Хохлова, Марьяна Спивак, Константин Федоров, Павел Майков, Катерина Ковальчук, Давид Колчин, Таша Цветкова, Михаил Башкатов, Елизавета Моряк, Софья Зайка, Мария Ульянова, Антон Ануров, Роман Каграманов, Микаэл Джанибекян, Вартан Торосян

Описание: Любовь имеет так много оттенков: любовь к себе и всему человечеству, отношения родителей и детей, страсть и мания, бескорыстная любовь и одержимая. О ее характере размышляли еще древние греки и выделили восемь типов любви. Каждая серия — это история о разных гранях одного всеобъемлющего чувства.

Качество: WEBRip 720p
Формат: MKV

Видео: MPEG-4 AVC, ~ 2900 Кбит/с, 1280x640, 25 Кадр/с
Аудио: 48.0 kHz, AC3 Dolby Digital, 2/0 (L,R) ch, ~ 192 kbps
скриншот  скриншот  скриншот  скриншот  

Общее
Уникальный идентификатор : 327534694610681005124872887663332933416 (0xF668E33AE8EFF75603BFC52E8457BF28)
Полное имя : D:8.sposobov.lyubit.2021.WEB-DL.720p1.8.sposobov.lyubit.2021.WEB-DL.720p.mkv
Формат : Matroska
Версия формата : Version 4
Размер файла : 337 Мбайт
Продолжительность : 15 м. 15 с.
Режим общего битрейта : Переменный
Общий поток : 3 085 Кбит/сек
Название фильма : 01.8.sposobov.lyubit.2021.WEB-DL.720p
Дата кодирования : UTC 2021-05-06 15:12:35
Программа кодирования : mkvmerge v56.1.0 ('My Friend') 64-bit
Библиотека кодирования : libebml v1.4.2 + libmatroska v1.6.4
Attachments : poster.jpg

Видео
Идентификатор : 1
Формат : AVC
Формат/Информация : Advanced Video Codec
Профиль формата : High@L3.1
Настройки формата : CABAC / 1 Ref Frames
Параметр CABAC формата : Да
Параметр RefFrames формата : 1 кадр
Параметр GOP формата : M=1, N=50
Идентификатор кодека : V_MPEG4/ISO/AVC
Продолжительность : 15 м. 15 с.
Вид битрейта : Переменный
Битрейт : 2 890 Кбит/сек
Максимальный битрейт : 3 000 Кбит/сек
Ширина : 1 280 пикселей
Высота : 640 пикселей
Соотношение сторон : 2,000
Режим частоты кадров : Постоянный
Частота кадров : 25,000 кадров/сек
Цветовое пространство : YUV
Субдискретизация насыщенности : 4:2:0
Битовая глубина : 8 бит
Тип развёртки : Прогрессивная
Бит/(Пиксели*Кадры) : 0.141
Размер потока : 316 Мбайт (94%)
Default : Да
Forced : Нет

Аудио
Идентификатор : 2
Формат : AC-3
Формат/Информация : Audio Coding 3
Коммерческое название : Dolby Digital
Идентификатор кодека : A_AC3
Продолжительность : 15 м. 15 с.
Вид битрейта : Постоянный
Битрейт : 192 Кбит/сек
Каналы : 2 канала
Channel layout : L R
Частота : 48,0 КГц
Частота кадров : 31,250 кадров/сек (1536 SPF)
Метод сжатия : С потерями
Размер потока : 21,0 Мбайт (6%)
Service kind : Complete Main
Default : Да
Forced : Нет

Внимание! Раздача ведётся путём добавления новых серий; при каждом добавлении создаётся новый торрент.
Чтобы начать докачку новой серии, пользователям необходимо сделать следующее:
1. Остановить скачивание;
2. Удалить старый торрент у себя из клиента (старые серии удалять не надо);
3. Скачать новый торрент и запустить его у себя в клиенте вместо старого, при этом указать клиенту путь в старую папку куда и должно происходить скачивание новых серий. Ваш клиент при этом должен произвести хеширование (проверку) старой папки и будет докачивать только те серии, которых у вас ещё нет. Старые серии при этом не удаляются, а продолжают раздаваться! Eсли вы уже удалили старые серии, то предотвратить повторную закачку старых серий можно, отжав галочку в соответствующих местах при запуске нового торрента.

pb.wtf



Скачать 8 способов любить через торрент https://c.radikal.ru/c12/2105/84/4b2df378e450.jpg Скачать, смотреть онлайн 8 способов любить бесплантно в хорошем качестве Описание: Любовь имеет так много оттенков: любовь к себе и всему человечеству, отношения родителей и детей, страсть и мания, бескорыстная ... 10 10 3
Торрент: Зарегистрирован [2021-05-25 03:50] · скачан: 10 раз
Статус: √ проверено
Размер: 2.16 GB
Как cкачать? Как скачать 8 способов любить через торрент | UTorrent

% Раздел Тема Автор DL S | L
TNT serials [ 3.19 GB ] 8 способов любить / Сезон: 1 / Серии: 1-7 из 8 [2021 WEBRip 1080p ] bober100 Скачать
1 | 0

28-11-2019 20:33  

Отключить всю рекламу на сайте

    Дорогой пользователь! Огромная просьба, поблагодарите релизера, оцените раздачу и оставьте свои комментарий, если Вы скачали 8 способов любить через торрент бесплатно!
    Комментировать посты могут только пользователи прошедшие не сложную регистрацию
    Показать сообщения:    

    8 способов любить через торрент
    Скачать бесплатно 8 способов любить
    8 способов любить скачать торрент
    8 способов любить смотреть онлайн
    Cкачать фильм 8 способов любить бесплатно
    8 способов любить скачать торрент в хорошем качестве
    8 способов любить смотреть онлайн бесплатно в хорошем качестве


    Вы не можете начинать темы
    Вы не можете отвечать на сообщения
    Вы не можете редактировать свои сообщения
    Вы не можете удалять свои сообщения
    Вы не можете голосовать в опросах
    Вы не можете прикреплять файлы к сообщениям
    Вы можете скачивать файлы